20000 Leagues Under the Sea 1954 720p Esub BluRay Dual Audio Hindi English GOPI SAHI

20,000 Leagues Under the Sea (1954)


A ship sent to investigate a wave of mysterious sinkings encounters the advanced submarine, the Nautilus, commanded by Captain Nemo.

Writer:

Earl Felton (screenplay)
A ship sent to investigate a wave of mysterious sinkings encounters the advanced submarine, the Nautilus, commanded by Captain Nemo.

Writer:

Earl Felton (screenplay)
7.2/10




Directed byRichard Fleischer
Produced byWalt Disney (uncredited)
Screenplay byEarl Felton
Based onTwenty Thousand Leagues Under the Sea
by Jules Verne
Starring
Music byPaul Smith
Joseph S. Dubin (orchestration)
CinematographyFranz Planer
Edited byElmo Williams
Production
company
Distributed byBuena Vista Distribution
Release date
  • December 23, 1954
Running time
127 minutes
CountryUnited States
LanguageEnglish
Budget$5 million[1][2]
Box office$28.2 million[2]




20000 Leagues Under the Sea 1954 720p Esub BluRay Dual Audio Hindi English GOPI SAHI

Format                         : Matroska
Format version                 : Version 4
File size                      : 995 MiB
Duration                       : 2 h 7 min
Overall bit rate               : 1 095 kb/s
Movie name                     : 20000 Leagues Under the Sea 1954 GOPI SAHI

Video
Format                         : AVC
Format/Info                    : Advanced Video Codec
Format profile                 : [email protected]
Format settings                : CABAC / 5 Ref Frames
Format settings, CABAC         : Yes
Format settings, Reference fra : 5 frames
Codec ID                       : V_MPEG4/ISO/AVC
Duration                       : 2 h 7 min
Bit rate                       : 899 kb/s
Width                          : 1 280 pixels
Height                         : 502 pixels
Display aspect ratio           : 2.550
Frame rate mode                : Constant
Frame rate                     : 23.976 (24000/1001) FPS
Color space                    : YUV
Chroma subsampling             : 4:2:0
Bit depth                      : 8 bits
Scan type                      : Progressive
Bits/(Pixel*Frame)             : 0.058
Stream size                    : 817 MiB (82%)
Title                          : GOPI SAHI
Writing library                : x264 core 148

Audio #1
Format                         : AAC LC
Duration                       : 2 h 7 min
Bit rate                       : 96.0 kb/s
Channel(s)                     : 2 channels
Channel layout                 : L R
Sampling rate                  : 48.0 kHz
Frame rate                     : 46.875 FPS (1024 SPF)
Compression mode               : Lossy
Delay relative to video        : -21 ms
Stream size                    : 87.5 MiB (9%)
Title                          : GOPI SAHI
Language                       : Hindi

Audio #2
Format                         : AAC LC
Duration                       : 2 h 7 min
Bit rate                       : 96.0 kb/s
Channel(s)                     : 2 channels
Channel layout                 : L R
Sampling rate                  : 48.0 kHz
Frame rate                     : 46.875 FPS (1024 SPF)
Compression mode               : Lossy
Delay relative to video        : -21 ms
Stream size                    : 87.6 MiB (9%)
Title                          : GOPI SAHI
Language                       : English

Text
ID                             : 4
Language                       : frs







Post a Comment

0 Comments