Ateet 2020 720p Zee5 720p Esub HD Hindi GOPI SAHI

Completed

A soldier lost in war and pronounced dead returns after decade to his wife and daughter, only to realize that they have moved on. As he forces his way into their life, questions are asked whether he is dead or alive.

Director:

Tanuj Bhramar

Writer:

Harsshil R Patel (story and screenplay)

Ateet 2020 720p Zee5 720p Esub HD Hindi GOPI SAHI

Format                         : Matroska
Format version                 : Version 4
File size                      : 858 MiB
Duration                       : 2 h 0 min
Overall bit rate               : 997 kb/s
Movie name                     : Ateet 2020 GOPISAHI
Encoded date                   : UTC 2020-04-21 04:36:09

Video
Format                         : AVC
Format/Info                    : Advanced Video Codec
Format profile                 : [email protected]
Format settings                : CABAC / 5 Ref Frames
Format settings, CABAC         : Yes
Format settings, Reference fra : 5 frames
Codec ID                       : V_MPEG4/ISO/AVC
Duration                       : 2 h 0 min
Bit rate                       : 899 kb/s
Width                          : 1 280 pixels
Height                         : 544 pixels
Display aspect ratio           : 2.35:1
Frame rate mode                : Constant
Frame rate                     : 25.000 FPS
Color space                    : YUV
Chroma subsampling             : 4:2:0
Bit depth                      : 8 bits
Scan type                      : Progressive
Bits/(Pixel*Frame)             : 0.052
Stream size                    : 774 MiB (90%)
Title                          : GOPISAHI
Writing library                : x264 core 148

Audio
Format                         : AAC LC
Duration                       : 2 h 0 min
Bit rate                       : 96.0 kb/s
Channel(s)                     : 2 channels
Channel layout                 : L R
Sampling rate                  : 48.0 kHz
Frame rate                     : 46.875 FPS (1024 SPF)
Compression mode               : Lossy
Delay relative to video        : -54 ms
Stream size                    : 82.4 MiB (10%)
Title                          : GOPISAHI
Language                       : Hindi

Text
Language                       : English







Post a Comment

0 Comments