Birds of Prey 2020 x264 720p Dual Audio English Hindi GOPI SAHI

Birds of Prey: And the Fantabulous Emancipation of One Harley Quinn (2020)

 

After splitting with the Joker, Harley Quinn joins superheroes Black Canary, Huntress and Renee Montoya to save a young girl from an evil crime lord.

Director:

Cathy Yan

Writers:

Christina Hodson, Paul Dini (Harley Quinn created by) |1 more credit »
 
6.2/10
93,495

Directed byCathy Yan
Produced by
Written byChristina Hodson
Based onCharacters
by DC
Starring
Music byDaniel Pemberton
CinematographyMatthew Libatique
Edited by
Production
company
Distributed byWarner Bros. Pictures
Release date
  • January 25, 2020 (Mexico City)
  • February 7, 2020 (United States)
Running time
109 minutes[1]
CountryUnited States
LanguageEnglish
Budget$82–100 million[2]
Box office$201.9 million[3][4]


Birds of Prey 2020 x264 720p Dual Audio English Hindi GOPI SAHI

Format                         : Matroska
Format version                 : Version 4
File size                      : 852 MiB
Duration                       : 1 h 48 min
Overall bit rate               : 1 094 kb/s
Movie name                     : Birds of Prey 2020 GOPISAHI

Video
Format                         : AVC
Format/Info                    : Advanced Video Codec
Format profile                 : [email protected]
Format settings                : CABAC / 5 Ref Frames
Format settings, CABAC         : Yes
Format settings, Reference fra : 5 frames
Codec ID                       : V_MPEG4/ISO/AVC
Duration                       : 1 h 48 min
Bit rate                       : 899 kb/s
Width                          : 1 280 pixels
Height                         : 534 pixels
Display aspect ratio           : 2.40:1
Frame rate mode                : Constant
Frame rate                     : 23.976 (24000/1001) FPS
Color space                    : YUV
Chroma subsampling             : 4:2:0
Bit depth                      : 8 bits
Scan type                      : Progressive
Bits/(Pixel*Frame)             : 0.055
Stream size                    : 700 MiB (82%)
Title                          : GOPISAHI
Writing library                : x264 core 157 r2935 545de2f

Audio #1
Format                         : AAC LC
Format/Info                    : Advanced Audio Codec Low Complexity
Codec ID                       : A_AAC-2
Duration                       : 1 h 48 min
Bit rate                       : 96.0 kb/s
Channel(s)                     : 2 channels
Channel layout                 : L R
Sampling rate                  : 44.1 kHz
Frame rate                     : 43.066 FPS (1024 SPF)
Compression mode               : Lossy
Delay relative to video        : 916 ms
Stream size                    : 75.1 MiB (9%)
Title                          : GOPISAHI
Language                       : Hindi

Audio #2
Format                         : AAC LC
Duration                       : 1 h 48 min
Bit rate                       : 96.0 kb/s
Channel(s)                     : 2 channels
Channel layout                 : L R
Sampling rate                  : 48.0 kHz
Frame rate                     : 46.875 FPS (1024 SPF)
Compression mode               : Lossy
Delay relative to video        : -21 ms
Stream size                    : 75.1 MiB (9%)
Title                          : GOPISAHI
Language                       : English

Menu
00:00:00.000                   : :1
00:08:07.779                   : :2
00:17:53.072                   : :3
00:27:11.171                   : :4
00:35:40.138                   : :5
00:44:47.685                   : :6
00:53:42.720                   : :7
01:01:14.880                   : :8
01:10:55.293                   : :9
01:19:05.824                   : :10
01:24:27.479                   : :11
01:34:27.328                   : :12
01:41:26.330                   : :13





Post a Comment

0 Comments