Cast Away 2000 720p Esub BluRay x264 Dual Audio Hindi English GOPI SAHI

Cast Away (2000)

 
A FedEx executive undergoes a physical and emotional transformation after crash landing on a deserted island.

Director:

Robert Zemeckis
7.8/10
498,671
Directed byRobert Zemeckis
Produced by
Written byWilliam Broyles Jr.
Starring
Music byAlan Silvestri
CinematographyDon Burgess
Edited byArthur Schmidt
Production
company
Distributed by
Release date
  • December 22, 2000
Running time
143 minutes
CountryUnited States
LanguageEnglish
Budget$90 million[1]
Box office$429.6 million[1]


Cast Away 2000 720p Esub BluRay x264 Dual Audio Hindi English GOPI SAHI

Format                         : Matroska
Format version                 : Version 4
File size                      : 1.10 GiB
Duration                       : 2 h 24 min
Overall bit rate               : 1 091 kb/s
Movie name                     : Cast Away 2000 GOPISAHI

Video
Format                         : AVC
Format/Info                    : Advanced Video Codec
Format profile                 : [email protected]
Format settings                : CABAC / 5 Ref Frames
Format settings, CABAC         : Yes
Format settings, Reference fra : 5 frames
Codec ID                       : V_MPEG4/ISO/AVC
Duration                       : 2 h 23 min
Bit rate                       : 899 kb/s
Width                          : 1 280 pixels
Height                         : 720 pixels
Display aspect ratio           : 16:9
Frame rate mode                : Constant
Frame rate                     : 23.976 (24000/1001) FPS
Color space                    : YUV
Chroma subsampling             : 4:2:0
Bit depth                      : 8 bits
Scan type                      : Progressive
Bits/(Pixel*Frame)             : 0.041
Stream size                    : 924 MiB (82%)
Title                          : GOPISAHI
Writing library                : x264 core 148

Audio #1
ID                             : 2
Format                         : AAC LC
Format/Info                    : Advanced Audio Codec Low Complexity
Codec ID                       : A_AAC-2
Duration                       : 2 h 24 min
Bit rate                       : 96.0 kb/s
Channel(s)                     : 2 channels
Channel layout                 : L R
Sampling rate                  : 48.0 kHz
Frame rate                     : 46.875 FPS (1024 SPF)
Compression mode               : Lossy
Delay relative to video        : -176 ms
Stream size                    : 99.3 MiB (9%)
Title                          : GOPISAHI
Language                       : Hindi
Default                        : Yes
Forced                         : No

Audio #2
ID                             : 3
Format                         : AAC LC
Format/Info                    : Advanced Audio Codec Low Complexity
Codec ID                       : A_AAC-2
Duration                       : 2 h 23 min
Bit rate                       : 96.0 kb/s
Channel(s)                     : 2 channels
Channel layout                 : L R
Sampling rate                  : 48.0 kHz
Frame rate                     : 46.875 FPS (1024 SPF)
Compression mode               : Lossy
Delay relative to video        : -188 ms
Stream size                    : 99.2 MiB (9%)
Title                          : GOPISAHI
Language                       : English

Text
Language                       : English






Post a Comment

0 Comments