Dolittle 2020 x264 720p Esub Bluray Dual Audio English Hindi GOPI SAHI

Dolittle (2020)

 
A physician who can talk to animals embarks on an adventure to find a legendary island with a young apprentice and a crew of strange pets.

Director:

Stephen Gaghan

Writers:

Stephen Gaghan (screenplay by), Dan Gregor (screenplay by) |4 more credits »

5.6/10
28,157

Directed byStephen Gaghan
Produced by
Screenplay by
  • Stephen Gaghan
  • Dan Gregor
  • Doug Mand
Story byThomas Shepherd
Based on
Starring
Music byDanny Elfman[1]
CinematographyGuillermo Navarro
Edited by
Production
company
Distributed byUniversal Pictures
Release date
  • January 17, 2020 (United States)
Running time
101 minutes
CountryUnited States
LanguageEnglish
Budget$175 million[2]
Box office$227.9 million[3][4]



Dolittle 2020 x264 720p Esub Bluray Dual Audio English Hindi GOPI SAHI

Format : Matroska
Format version : Version 4 / Version 2
File size : 794 MiB
Duration : 1 h 41 min
Overall bit rate : 1 095 kb/s
Movie name : Dolittle 2020 x264 720p Esub Bluray Dual Audio English Hindi GOPI SAHI

Video
ID : 1
Format : AVC
Format/Info : Advanced Video Codec
Format profile : [email protected]
Format settings : CABAC / 5 Ref Frames
Format settings, CABAC : Yes
Format settings, ReFrames : 5 frames
Codec ID : V_MPEG4/ISO/AVC
Duration : 1 h 41 min
Bit rate : 899 kb/s
Width : 1 280 pixels
Height : 694 pixels
Display aspect ratio : 1.85:1
Frame rate mode : Constant
Frame rate : 23.976 (24000/1001) FPS
Color space : YUV
Chroma subsampling : 4:2:0
Bit depth : 8 bits
Scan type : Progressive
Bits/(Pixel*Frame) : 0.042
Stream size : 652 MiB (82%)
Title : GOPISAHI
Writing library : x264 core 148

Audio #1
Format : AAC
Duration : 1 h 41 min
Bit rate : 96.0 kb/s
Channel(s) : 2 channels
Channel positions : Front: L R
Sampling rate : 48.0 kHz
Frame rate : 46.875 FPS (1024 SPF)
Compression mode : Lossy
Delay relative to video : -26 ms
Stream size : 70.0 MiB (9%)
Title : GOPI SAHI
Language : Hindi

Audio #2
Format : AAC
Duration : 1 h 41 min
Bit rate : 96.0 kb/s
Channel(s) : 2 channels
Channel positions : Front: L R
Sampling rate : 48.0 kHz
Frame rate : 46.875 FPS (1024 SPF)
Compression mode : Lossy
Delay relative to video : -26 ms
Stream size : 70.0 MiB (9%)
Title : GOPISAHI
Language : English

Text
Language : English

Menu
00:00:00.005 : :Chapter 1
00:04:22.601 : :Chapter 2
00:09:36.831 : :Chapter 3
00:14:31.250 : :Chapter 4
00:18:37.330 : :Chapter 5
00:20:57.803 : :Chapter 6
00:23:02.177 : :Chapter 7
00:29:30.232 : :Chapter 8
00:35:58.161 : :Chapter 9
00:39:08.476 : :Chapter 10
00:45:47.750 : :Chapter 11
00:48:28.911 : :Chapter 12
00:53:05.938 : :Chapter 13
00:59:13.472 : :Chapter 14
01:04:55.146 : :Chapter 15
01:11:15.693 : :Chapter 16
01:17:06.001 : :Chapter 17
01:23:35.015 : :Chapter 18
01:30:01.067 : :Chapter 19
01:32:57.285 : :Chapter 20










Post a Comment

0 Comments