Flushed Away 2006 x264 720p Esub BluRay Dual Audio English Hindi GOPI SAHI


Flushed Away (2006)

 
Directed byDavid Bowers
Sam Fell
Produced byCecil Kramer
David Sproxton
Peter Lord
Screenplay by
Story by
  • Sam Fell
  • Peter Lord
  • Dick Clement
  • Ian La Frenais[1]
Starring
Music byHarry Gregson-Williams
Edited byEric Dapkewicz
John Venzon
Production
company
Distributed byParamount Pictures1
Release date
  • 3 November 2006 (United States)
  • 1 December 2006 (United Kingdom)
Running time
84 minutes
CountryUnited Kingdom
United States[1]
LanguageEnglish
Budget$149 million[2]
Box office$178 million[3]


Flushed Away 2006 x264 720p Esub BluRay Dual Audio English Hindi GOPI SAHI


Format                         : Matroska
Format version                 : Version 4
File size                      : 666 MiB
Duration                       : 1 h 25 min
Overall bit rate               : 1 094 kb/s
Movie name                     : Flushed Away 2006 GOPISAHI

Video
Format                         : AVC
Format/Info                    : Advanced Video Codec
Format profile                 : [email protected]
Format settings                : CABAC / 5 Ref Frames
Format settings, CABAC         : Yes
Format settings, Reference fra : 5 frames
Codec ID                       : V_MPEG4/ISO/AVC
Duration                       : 1 h 25 min
Bit rate                       : 899 kb/s
Width                          : 1 280 pixels
Height                         : 694 pixels
Display aspect ratio           : 1.85:1
Frame rate mode                : Constant
Frame rate                     : 23.976 (24000/1001) FPS
Color space                    : YUV
Chroma subsampling             : 4:2:0
Bit depth                      : 8 bits
Scan type                      : Progressive
Bits/(Pixel*Frame)             : 0.042
Stream size                    : 546 MiB (82%)
Title                          : GOPISAHI
Writing library                : x264 core 157 r2935 545de2f

Audio #1
Format                         : AAC LC
Duration                       : 1 h 24 min
Bit rate                       : 96.0 kb/s
Channel(s)                     : 2 channels
Channel layout                 : L R
Sampling rate                  : 44.1 kHz
Frame rate                     : 43.066 FPS (1024 SPF)
Compression mode               : Lossy
Delay relative to video        : 6 s 934 ms
Stream size                    : 58.7 MiB (9%)
Title                          : GOPISAHI
Language                       : Hindi

Audio #2
Format                         : AAC LC
Duration                       : 1 h 25 min
Bit rate                       : 96.0 kb/s
Channel(s)                     : 2 channels
Channel layout                 : L R
Sampling rate                  : 48.0 kHz
Frame rate                     : 46.875 FPS (1024 SPF)
Compression mode               : Lossy
Delay relative to video        : -64 ms
Stream size                    : 58.8 MiB (9%)
Title                          : GOPISAHI
Language                       : English

Text
Language                       : English





Post a Comment

0 Comments