For Your Eyes Only 1981 720p Esub BluRay Dual Audio Hindi English GOPI SAHI

For Your Eyes Only (1981)


James Bond is assigned to find a missing British vessel, equipped with a weapons encryption device and prevent it from falling into enemy hands.

Director:

John Glen

Writers:

Richard Maibaum (screenplay), Michael G. Wilson (screenplay)

6.8/10




Directed byJohn Glen
Produced byAlbert R. Broccoli
Screenplay byRichard Maibaum
Michael G. Wilson
Based onFor Your Eyes Only
by Ian Fleming
StarringRoger Moore
Carole Bouquet
Topol
Lynn Holly Johnson
Julian Glover
Music byBill Conti
CinematographyAlan Hume
Edited byJohn Grover
Production
company
Distributed byUnited Artists
Release date
  • 24 June 1981
Running time
127 minutes
CountryUnited Kingdom
United States
LanguageEnglish
Budget$25 million[1]
Box office$195.3 million






For Your Eyes Only 1981 720p Esub BluRay Dual Audio Hindi English GOPI SAHI

Format                         : Matroska
Format version                 : Version 4
File size                      : 1 006 MiB
Duration                       : 2 h 7 min
Overall bit rate               : 1 099 kb/s
Movie name                     : For Your Eyes Only (1981) 1080p BluRay x264 {Dual Audio} {Hindi HDTV DD 2.0-Engl

Video
Format                         : AVC
Format/Info                    : Advanced Video Codec
Format profile                 : [email protected]
Format settings                : CABAC / 5 Ref Frames
Format settings, CABAC         : Yes
Format settings, Reference fra : 5 frames
Codec ID                       : V_MPEG4/ISO/AVC
Duration                       : 2 h 7 min
Bit rate                       : 899 kb/s
Width                          : 1 280 pixels
Height                         : 544 pixels
Display aspect ratio           : 2.35:1
Frame rate mode                : Constant
Frame rate                     : 23.976 (24000/1001) FPS
Color space                    : YUV
Chroma subsampling             : 4:2:0
Bit depth                      : 8 bits
Scan type                      : Progressive
Bits/(Pixel*Frame)             : 0.054
Stream size                    : 823 MiB (82%)
Title                          : GOPI SAHI
Writing library                : x264 core 148

Audio #1
Format                         : AAC LC
Duration                       : 2 h 7 min
Bit rate                       : 96.0 kb/s
Channel(s)                     : 2 channels
Channel layout                 : L R
Sampling rate                  : 48.0 kHz
Frame rate                     : 46.875 FPS (1024 SPF)
Compression mode               : Lossy
Delay relative to video        : -21 ms
Stream size                    : 88.1 MiB (9%)
Title                          : GOPI SAHI
Language                       : Hindi

Audio #2
Format                         : AAC LC
Duration                       : 2 h 7 min
Bit rate                       : 96.0 kb/s
Channel(s)                     : 2 channels
Channel layout                 : L R
Sampling rate                  : 48.0 kHz
Frame rate                     : 46.875 FPS (1024 SPF)
Compression mode               : Lossy
Delay relative to video        : -21 ms
Stream size                    : 88.3 MiB (9%)
Title                          : GOPI SAHI
Language                       : English
Default                        : No

Text
Format                         : PGS
Language                       : English