G.I Joe Retaliation 2013 x264 720p Esub BluRay Dual Audio English Hindi GOPI SAHI

G.I. Joe: Retaliation (2013)

The G.I. Joes are not only fighting their mortal enemy Cobra; they are forced to contend with threats from within the government that jeopardize their very existence.

Director:

Jon M. Chu

5.8/10
169,658

Directed byJon M. Chu
Produced by
Written by
Based on
Starring
Music byHenry Jackman
CinematographyStephen Windon
Edited by
Production
companies
Distributed byParamount Pictures[2]
Metro-Goldwyn-Mayer[3]
Release date
  • March 28, 2013 (France[4])
  • March 28, 2013 (United States)
Running time
123 minutes[5]
CountryUnited States
LanguageEnglish
Budget$130-155 million[6][7]
Box office$375.7 million[6]


G.I Joe Retaliation 2013 x264 720p Esub BluRay Dual Audio English Hindi GOPI SAHI

Format                         : Matroska
Format version                 : Version 4
File size                      : 893 MiB
Duration                       : 1 h 50 min
Overall bit rate               : 1 132 kb/s
Movie name                     : G.I Joe Retaliation 2013 GOPI SAHI

Video
ID                             : 1
Format                         : AVC
Format/Info                    : Advanced Video Codec
Format profile                 : [email protected]
Format settings                : CABAC / 5 Ref Frames
Format settings, CABAC         : Yes
Format settings, Reference fra : 5 frames
Codec ID                       : V_MPEG4/ISO/AVC
Duration                       : 1 h 50 min
Bit rate                       : 899 kb/s
Width                          : 1 280 pixels
Height                         : 534 pixels
Display aspect ratio           : 2.40:1
Frame rate mode                : Constant
Frame rate                     : 23.976 (24000/1001) FPS
Color space                    : YUV
Chroma subsampling             : 4:2:0
Bit depth                      : 8 bits
Scan type                      : Progressive
Bits/(Pixel*Frame)             : 0.055
Stream size                    : 709 MiB (79%)
Title                          : GOPI SAHI
Writing library                : x264 core 148

Audio #1
ID                             : 2
Format                         : AAC LC
Format/Info                    : Advanced Audio Codec Low Complexity
Codec ID                       : A_AAC-2
Duration                       : 1 h 50 min
Bit rate                       : 96.0 kb/s
Channel(s)                     : 2 channels
Channel layout                 : L R
Sampling rate                  : 48.0 kHz
Frame rate                     : 46.875 FPS (1024 SPF)
Compression mode               : Lossy
Delay relative to video        : -21 ms
Stream size                    : 76.0 MiB (9%)
Title                          : GOPI SAHI
Language                       : Hindi
Default                        : Yes
Forced                         : No

Audio #2
ID                             : 3
Format                         : AAC LC
Format/Info                    : Advanced Audio Codec Low Complexity
Codec ID                       : A_AAC-2
Duration                       : 1 h 50 min
Bit rate                       : 96.0 kb/s
Channel(s)                     : 2 channels
Channel layout                 : L R
Sampling rate                  : 48.0 kHz
Frame rate                     : 46.875 FPS (1024 SPF)
Compression mode               : Lossy
Delay relative to video        : -21 ms
Stream size                    : 76.0 MiB (9%)
Title                          : GOPI SAHI
Language                       : English
Default                        : No
Forced                         : No

Text #1
ID                             : 4
Format                         : PGS
Muxing mode                    : zlib
Codec ID                       : S_HDMV/PGS
Codec ID/Info                  : Picture based subtitle format used on BDs/HD-DVDs
Duration                       : 1 h 39 min
Bit rate                       : 30.2 kb/s
Count of elements              : 2316
Stream size                    : 21.5 MiB (2%)
Title                          : GOPI SAHI
Language                       : English
Default                        : Yes
Forced                         : No

Text #2
ID                             : 5
Format                         : PGS
Muxing mode                    : zlib
Codec ID                       : S_HDMV/PGS
Codec ID/Info                  : Picture based subtitle format used on BDs/HD-DVDs
Duration                       : 1 h 39 min
Bit rate                       : 35.4 kb/s
Count of elements              : 2688
Stream size                    : 25.3 MiB (3%)
Title                          : GOPI SAHI
Language                       : English
Default                        : No
Forced                         : No

Text #3
ID                             : 6
Format                         : PGS
Muxing mode                    : zlib
Codec ID                       : S_HDMV/PGS
Codec ID/Info                  : Picture based subtitle format used on BDs/HD-DVDs
Duration                       : 1 h 43 min
Bit rate                       : 72.6 kb/s
Count of elements              : 3840
Stream size                    : 54.0 MiB (6%)
Title                          : GOPI SAHI
Language                       : English
Default                        : No
Forced                         : No





MAGNET

MULTIUP

MIRRORACE

GDRIVE

INDISHARE

UPLOADFILES

FIREBASE

MEDIAFIRE


Post a Comment

0 Comments