G.I. Joe The Rise of Cobra 2009 x264 720p Esub BluRay Dual Audio English Hindi GOPI SAHI

G.I. Joe: The Rise of Cobra (2009)

An elite military unit comprised of special operatives known as G.I. Joe, operating out of The Pit, takes on an evil organization led by a notorious arms dealer.

Director:

Stephen Sommers

Writers:

Stuart Beattie (screenplay), David Elliot (screenplay) |4 more credits »

5.8/10




Directed byStephen Sommers
Produced by
Screenplay by
Story by
  • Michael B. Gordon
  • Stuart Beattie
  • Stephen Sommers
Starring
Music byAlan Silvestri
CinematographyMitchell Amundsen
Edited by
  • Bob Ducsay
  • Jim May
Production
company
Distributed byParamount Pictures
Release date
  • August 6, 2009
(world premiere)
  • August 7, 2009
(wide release)
Running time
118 minutes[1]
CountryUnited States
LanguageEnglish
Budget$175 million[2]
Box office$302.5 million[3]




G.I. Joe The Rise of Cobra 2009 x264 720p Esub BluRay Dual Audio English Hindi GOPI SAHI

Format                         : Matroska
Format version                 : Version 4
File size                      : 953 MiB
Duration                       : 1 h 57 min
Overall bit rate               : 1 129 kb/s
Movie name                     : G.I. Joe The Rise of Cobra 2009 GOPI SAHI
bmatroska v1.5.2

Video
ID                             : 1
Format                         : AVC
Format/Info                    : Advanced Video Codec
Format profile                 : [email protected]
Format settings                : CABAC / 5 Ref Frames
Format settings, CABAC         : Yes
Format settings, Reference fra : 5 frames
Codec ID                       : V_MPEG4/ISO/AVC
Duration                       : 1 h 57 min
Bit rate                       : 899 kb/s
Width                          : 1 280 pixels
Height                         : 534 pixels
Display aspect ratio           : 2.40:1
Frame rate mode                : Constant
Frame rate                     : 23.976 (24000/1001) FPS
Color space                    : YUV
Chroma subsampling             : 4:2:0
Bit depth                      : 8 bits
Scan type                      : Progressive
Bits/(Pixel*Frame)             : 0.055
Stream size                    : 758 MiB (80%)
Title                          : GOPI SAHI
Writing library                : x264 core 148

Audio #1
ID                             : 2
Format                         : AAC LC
Format/Info                    : Advanced Audio Codec Low Complexity
Codec ID                       : A_AAC-2
Duration                       : 1 h 57 min
Bit rate                       : 96.0 kb/s
Channel(s)                     : 2 channels
Channel layout                 : L R
Sampling rate                  : 48.0 kHz
Frame rate                     : 46.875 FPS (1024 SPF)
Compression mode               : Lossy
Delay relative to video        : 1 s 979 ms
Stream size                    : 81.2 MiB (9%)
Title                          : GOPI SAHI
Language                       : Hindi
Default                        : Yes
Forced                         : No

Audio #2
ID                             : 3
Format                         : AAC LC
Format/Info                    : Advanced Audio Codec Low Complexity
Codec ID                       : A_AAC-2
Duration                       : 1 h 57 min
Bit rate                       : 96.0 kb/s
Channel(s)                     : 2 channels
Channel layout                 : L R
Sampling rate                  : 48.0 kHz
Frame rate                     : 46.875 FPS (1024 SPF)
Compression mode               : Lossy
Delay relative to video        : -21 ms
Stream size                    : 81.1 MiB (9%)
Title                          : GOPI SAHI
Language                       : English

Text #1
ID                             : 4
Format                         : PGS

Language                       : English

Text #2
Format                         : PGS
Language                       : English

Text #3
Format                         : PGS






Post a Comment

0 Comments