Gone with the Wind 1939 x264 720p Esub BluRay Dual Audio English Hindi GOPI SAHI

Gone with the Wind (1939)

A manipulative woman and a roguish man conduct a turbulent romance during the American Civil War and Reconstruction periods.

Directors:

Victor Fleming, George Cukor (uncredited) |1 more credit »

Writers:

Margaret Mitchell (story of the old south "Gone with the Wind"), Sidney Howard (screenplay)
8.1/10
275,900

Directed byVictor Fleming
Produced byDavid O. Selznick
Screenplay bySidney Howard
Based onGone with the Wind
by Margaret Mitchell
Starring
Music byMax Steiner
CinematographyErnest Haller
Edited by
Production
companies
Distributed byLoew's Inc.[1][nb 1]
Release date
  • December 15, 1939 (Atlanta premiere)
Running time
CountryUnited States
LanguageEnglish
Budget$3.85 million
Box office>$390 million



Gone with the Wind 1939 x264 720p Esub BluRay Dual Audio English Hindi GOPI SAHI

Format                         : Matroska
Format version                 : Version 4
File size                      : 1.78 GiB
Duration                       : 3 h 53 min
Overall bit rate               : 1 095 kb/s
Movie name                     : Gone with the Wind 1939 GOPISAHI

Video
Format                         : AVC
Format/Info                    : Advanced Video Codec
Format profile                 : [email protected]
Format settings                : CABAC / 5 Ref Frames
Format settings, CABAC         : Yes
Format settings, Reference fra : 5 frames
Codec ID                       : V_MPEG4/ISO/AVC
Duration                       : 3 h 53 min
Bit rate                       : 899 kb/s
Width                          : 1 280 pixels
Height                         : 720 pixels
Display aspect ratio           : 16:9
Frame rate mode                : Constant
Frame rate                     : 23.976 (24000/1001) FPS
Color space                    : YUV
Chroma subsampling             : 4:2:0
Bit depth                      : 8 bits
Scan type                      : Progressive
Bits/(Pixel*Frame)             : 0.041
Stream size                    : 1.46 GiB (82%)
Title                          : GOPISAHI
Writing library                : x264 core 157 r2935 545de2f

Audio #1
Format                         : AAC LC
Format/Info                    : Advanced Audio Codec Low Complexity
Codec ID                       : A_AAC-2
Duration                       : 3 h 53 min
Bit rate                       : 96.0 kb/s
Channel(s)                     : 2 channels
Channel layout                 : L R
Sampling rate                  : 48.0 kHz
Frame rate                     : 46.875 FPS (1024 SPF)
Compression mode               : Lossy
Delay relative to video        : -21 ms
Stream size                    : 161 MiB (9%)
Title                          : GOPISAHI
Language                       : Hindi

Audio #2
Format                         : AAC LC
Format/Info                    : Advanced Audio Codec Low Complexity
Codec ID                       : A_AAC-2
Duration                       : 3 h 53 min
Bit rate                       : 96.0 kb/s
Channel(s)                     : 2 channels
Channel layout                 : L R
Sampling rate                  : 48.0 kHz
Frame rate                     : 46.875 FPS (1024 SPF)
Compression mode               : Lossy
Delay relative to video        : -21 ms
Stream size                    : 161 MiB (9%)
Title                          : GOPISAHI
Language                       : English

Text
Language                       : English

Menu
00:00:00.000                   : :Overture
00:02:35.781                   : :Credits and Forward
00:06:46.990                   : :Tarletons spill a secret
00:09:39.037                   : :Love of the Land
00:15:25.675                   : :Dressing up and down
00:17:53.739                   : :Twelve Oaks
00:21:42.343                   : :Attention paid and unpaid
00:25:46.962                   : :Dreams of victory
00:28:35.339                   : :Has the war started?
00:32:35.370                   : :The proposal
00:35:39.429                   : :Widow Hamilton
00:38:09.913                   : :Atlanta bazaar
00:42:22.457                   : :Shocking the Confederacy
00:46:02.843                   : :You should be kissed
00:48:47.258                   : :Sheer waste
00:52:02.161                   : :Christmas furlough
00:55:26.573                   : :Ashley's request
00:58:42.811                   : :Belle's Donation
01:01:42.616                   : :Enough of dying
01:04:45.924                   : :Panic in Atlanta
01:10:42.071                   : :Awaiting invaders and a baby
01:14:50.486                   : :The wounded
01:17:06.997                   : :Prissy's confession
01:18:54.146                   : :Recruiting Rhett
01:23:06.857                   : :Atlanta Burns
01:27:39.755                   : :Kiss me...once
01:31:47.419                   : :Twelve Oaks in ruins
01:34:58.484                   : :Sadness at Tara
01:38:03.503                   : :Rock bottom
01:41:59.113                   : :I'll never be hungry again
01:44:13.038                   : :Intermission Music
01:48:12.695                   : :Entr'Acte
01:49:43.160                   : :Sherman! Hard labor.
01:52:41.588                   : :Yankee intruder
01:57:31.628                   : :War over
02:01:43.379                   : :Ashley returns
02:03:47.587                   : :Something to live for
02:09:20.169                   : :Pa's accident
02:11:21.374                   : :Ready to wear
02:14:24.515                   : :Appeal to Rhett
02:19:39.997                   : :Han in men's pockets
02:25:18.752                   : :Businesswoman
02:29:54.444                   : :Shanty town attack
02:32:43.321                   : :Night vigil
02:37:26.812                   : :Return from the raid
02:42:47.466                   : :Melanie and Belle
02:46:00.659                   : :Rhett's proposal
02:53:12.340                   : :The honeymoon
02:57:13.373                   : :Bonnie Blue Butler
03:00:25.523                   : :Comfort elsewhere
03:05:08.848                   : :Doting dad
03:08:46.982                   : :The old days
03:12:17.818                   : :Our Scarlett
03:14:08.762                   : :Taking Scarlett
03:18:52.963                   : :Homesick
03:24:14.451                   : :Scarlett's fall
03:29:55.583                   : :Bonnie's accident
03:32:26.442                   : :Chronicle of grief
03:35:29.875                   : :Melanie's farewell
03:39:29.782                   : :True loves
03:41:43.832                   : :Frankly, my dear
03:46:43.465                   : :Tomorrow is another day
03:48:56.932                   : :Exit Music






Post a Comment

0 Comments