Herbie Goes Bananas 1980 x264 720p BluRay Dual Audio English Hindi GOPI SAHI

Herbie Goes Bananas (1980)


The adorable little VW helps its owners break up a counterfeiting ring in Mexico.

Writers:

Don Tait, Gordon Buford (characters creator)
5.0/10
4,941

Directed byVincent McEveety
Produced byKevin Corcoran
Ron Miller
Don Tait
Written byDon Tait
Based onCharacters
by Gordon Buford
StarringCloris Leachman
Harvey Korman
Charles Martin Smith
Stephan W. Burns
John Vernon
Elyssa Davalos
Joaquin Garay III
Richard Jaeckel
Alex Rocco
Music byFrank De Vol
CinematographyFrank V. Phillips
Edited byGordon D. Brenner
Production
company
Distributed byBuena Vista Distribution
Release date
  • June 25, 1980
Running time
98 minutes
CountryUnited States
LanguageEnglish
Box office$18 million[2]


Herbie Goes Bananas 1980 x264 720p BluRay Dual Audio English Hindi GOPI SAHI

Format                         : Matroska
Format version                 : Version 4
File size                      : 701 MiB
Duration                       : 1 h 29 min
Overall bit rate               : 1 095 kb/s
Movie name                     : Herbie Goes Bananas 1980 GOPISAHI

Video
Format                         : AVC
Format/Info                    : Advanced Video Codec
Format profile                 : [email protected]
Format settings                : CABAC / 5 Ref Frames
Format settings, CABAC         : Yes
Format settings, Reference fra : 5 frames
Codec ID                       : V_MPEG4/ISO/AVC
Duration                       : 1 h 29 min
Bit rate                       : 899 kb/s
Width                          : 1 280 pixels
Height                         : 720 pixels
Display aspect ratio           : 16:9
Frame rate mode                : Constant
Frame rate                     : 25.000 FPS
Color space                    : YUV
Chroma subsampling             : 4:2:0
Bit depth                      : 8 bits
Scan type                      : Progressive
Bits/(Pixel*Frame)             : 0.039
Stream size                    : 576 MiB (82%)
Title                          : GOPISAHI
Writing library                : x264 core 157 r2935 545de2f

Audio #1
Format                         : AAC LC
Duration                       : 1 h 29 min
Bit rate                       : 96.0 kb/s
Channel(s)                     : 2 channels
Channel layout                 : L R
Sampling rate                  : 48.0 kHz
Frame rate                     : 46.875 FPS (1024 SPF)
Compression mode               : Lossy
Delay relative to video        : -21 ms
Stream size                    : 61.8 MiB (9%)
Title                          : GOPISAHI
Language                       : Hindi

Audio #2
Format                         : AAC LC
Duration                       : 1 h 29 min
Bit rate                       : 96.0 kb/s
Channel(s)                     : 2 channels
Channel layout                 : L R
Sampling rate                  : 48.0 kHz
Frame rate                     : 46.875 FPS (1024 SPF)
Compression mode               : Lossy
Delay relative to video        : -21 ms
Stream size                    : 61.8 MiB (9%)
Title                          : GOPISAHI
Language                       : English






Post a Comment

0 Comments