Herbie Goes To Monte Carlo 1977 x264 720p Esub BluRay Dual Audio English Hindi GOPI SAHI

Herbie Goes to Monte Carlo (1977)


Herbie, the Volkswagen Beetle with a mind of its own, is racing in the Monte Carlo Rally. Unbeknownst to Herbie's driver, thieves have hidden a cache of stolen diamonds in Herbie's gas tank, and are now trying to get them back.

5.7/10
6,499

Directed byVincent McEveety
Produced byRon Miller
Written byArthur Alsberg
Don Nelson
Based onCharacters
by Gordon Buford
StarringDean Jones
Don Knotts
Julie Sommars
Jacques Marin
Roy Kinnear
Bernard Fox
Eric Braeden
Xavier Saint-Macary
Johnny Haymer
Music byFrank De Vol
CinematographyLeonard J. South
Edited byCotton Warburton
Production
company
Distributed byBuena Vista Distribution
Release date
  • June 24, 1977
Running time
104 minutes
CountryUnited States
LanguageEnglish
Box office$29 million[1]


Herbie Goes To Monte Carlo 1977 x264 720p Esub BluRay Dual Audio English Hindi GOPI SAHI

Format                         : Matroska
Format version                 : Version 4
File size                      : 820 MiB
Duration                       : 1 h 44 min
Overall bit rate               : 1 093 kb/s
Movie name                     : Herbie Goes To Monte Carlo 1977 GOPISAHI

Video
Format                         : AVC
Format/Info                    : Advanced Video Codec
Format profile                 : [email protected]
Format settings                : CABAC / 5 Ref Frames
Format settings, CABAC         : Yes
Format settings, Reference fra : 5 frames
Codec ID                       : V_MPEG4/ISO/AVC
Duration                       : 1 h 44 min
Bit rate                       : 899 kb/s
Width                          : 1 280 pixels
Height                         : 772 pixels
Display aspect ratio           : 5:3
Frame rate mode                : Constant
Frame rate                     : 23.976 (24000/1001) FPS
Color space                    : YUV
Chroma subsampling             : 4:2:0
Bit depth                      : 8 bits
Scan type                      : Progressive
Bits/(Pixel*Frame)             : 0.038
Stream size                    : 674 MiB (82%)
Title                          : GOPISAHI
Writing library                : x264 core 157 r2935 545de2f

Audio #1
Format                         : AAC LC
Duration                       : 1 h 44 min
Bit rate                       : 96.0 kb/s
Channel(s)                     : 2 channels
Channel layout                 : L R
Sampling rate                  : 48.0 kHz
Frame rate                     : 46.875 FPS (1024 SPF)
Compression mode               : Lossy
Delay relative to video        : 1 s 236 ms
Stream size                    : 72.2 MiB (9%)
Title                          : GOPISAHI
Language                       : Hindi

Audio #2
Format                         : AAC LC
Duration                       : 1 h 44 min
Bit rate                       : 96.0 kb/s
Channel(s)                     : 2 channels
Channel layout                 : L R
Sampling rate                  : 48.0 kHz
Frame rate                     : 46.875 FPS (1024 SPF)
Compression mode               : Lossy
Delay relative to video        : -64 ms
Stream size                    : 72.3 MiB (9%)
Title                          : GOPISAHI
Language                       : English

Text
Language                       : English





Post a Comment

0 Comments