John Wick 3 2019 x264 720p Esub BluRay Dual Audio English Hindi GOPI SAHI

John Wick: Chapter 3 - Parabellum (2019)

 
John Wick is on the run after killing a member of the international assassins' guild, and with a $14 million price tag on his head, he is the target of hit men and women everywhere.

Director:

Chad Stahelski

Writers:

Derek Kolstad (screenplay by), Shay Hatten (screenplay by) |4 more credits »

Directed byChad Stahelski
Produced by
Screenplay by
Story byDerek Kolstad
Based onCharacters
by Derek Kolstad
Starring
Music by
CinematographyDan Laustsen
Edited byEvan Schiff
Production
company
Distributed byLionsgate
Release date
  • May 9, 2019 (Brooklyn)
  • May 17, 2019 (United States)
Running time
131 minutes[1]
CountryUnited States
LanguageEnglish
Budget$75 million[2][3]
Box office$326.7 million[4]

 
John Wick 3 2019 x264 720p Esub BluRay Dual Audio English Hindi GOPI SAHI

Format                         : Matroska
Format version                 : Version 4
File size                      : 1.00 GiB
Duration                       : 2 h 11 min
Overall bit rate               : 1 094 kb/s
Movie name                     : John Wick 3 2019 GOPISAHI

Video
Format                         : AVC
Format/Info                    : Advanced Video Codec
Format profile                 : [email protected]
Format settings                : CABAC / 12 Ref Frames
Format settings, CABAC         : Yes
Format settings, Reference fra : 12 frames
Codec ID                       : V_MPEG4/ISO/AVC
Duration                       : 2 h 11 min
Bit rate                       : 899 kb/s
Width                          : 1 280 pixels
Height                         : 536 pixels
Display aspect ratio           : 2.40:1
Frame rate mode                : Constant
Frame rate                     : 23.976 (24000/1001) FPS
Color space                    : YUV
Chroma subsampling             : 4:2:0
Bit depth                      : 8 bits
Scan type                      : Progressive
Bits/(Pixel*Frame)             : 0.055
Stream size                    : 843 MiB (82%)
Title                          : GOPISAHI
Writing library                : x264 core 157 r2935 545de2f

Audio #1
Format                         : AAC LC
Duration                       : 2 h 10 min
Bit rate                       : 96.0 kb/s
Channel(s)                     : 2 channels
Channel layout                 : L R
Sampling rate                  : 48.0 kHz
Frame rate                     : 46.875 FPS (1024 SPF)
Compression mode               : Lossy
Delay relative to video        : 18 s 979 ms
Stream size                    : 90.2 MiB (9%)
Title                          : GOPISAHI
Language                       : Hindi

Audio #2
Format                         : AAC LC
Duration                       : 2 h 11 min
Bit rate                       : 96.0 kb/s
Channel(s)                     : 2 channels
Channel layout                 : L R
Sampling rate                  : 48.0 kHz
Frame rate                     : 46.875 FPS (1024 SPF)
Compression mode               : Lossy
Delay relative to video        : -21 ms
Stream size                    : 90.4 MiB (9%)
Title                          : GOPISAHI
Language                       : English

Text #1
Language                       : English

Text #2
Language                       : English