Jumanji The Next Level 2019 x264 720p Esub BluRay Dual Audio Hindi English Telugu Tamil GOPI SAHI

Jumanji: The Next Level (2019)

 
In Jumanji: The Next Level, the gang is back but the game has changed. As they return to rescue one of their own, the players will have to brave parts unknown from arid deserts to snowy mountains, to escape the world's most dangerous game.

Director:

Jake Kasdan

6.7/10


Directed byJake Kasdan
Produced by
Written by
Based onJumanji
by Chris Van Allsburg
Starring
Music byHenry Jackman
CinematographyGyula Pados
Edited by
Production
companies
Distributed bySony Pictures Releasing
Release date
  • December 13, 2019 (United States)
Running time
123 minutes[1]
CountryUnited States
LanguageEnglish
Budget$125–132 million[2][3]
Box office$796.6 million[2][4






Jumanji The Next Level 2019 x264 720p Esub BluRay Dual Audio Hindi English Telugu Tamil GOPI SAHI

Format                         : Matroska
Format version                 : Version 4
File size                      : 1.11 GiB
Duration                       : 2 h 3 min
Overall bit rate               : 1 289 kb/s
Movie name                     : Jumanji The Next Level 2019 GOPISAHI

Video
Format                         : AVC
Format/Info                    : Advanced Video Codec
Format profile                 : [email protected]
Format settings                : CABAC / 12 Ref Frames
Format settings, CABAC         : Yes
Format settings, Reference fra : 12 frames
Codec ID                       : V_MPEG4/ISO/AVC
Duration                       : 2 h 3 min
Bit rate                       : 899 kb/s
Width                          : 1 280 pixels
Height                         : 536 pixels
Display aspect ratio           : 2.40:1
Frame rate mode                : Constant
Frame rate                     : 23.976 (24000/1001) FPS
Color space                    : YUV
Chroma subsampling             : 4:2:0
Bit depth                      : 8 bits
Scan type                      : Progressive
Bits/(Pixel*Frame)             : 0.055
Stream size                    : 791 MiB (70%)
Title                          : GOPISAHI
Writing library                : x264 core 157 r2935 545de2f

Audio #1
Format                         : AAC LC
Duration                       : 2 h 3 min
Bit rate                       : 96.0 kb/s
Channel(s)                     : 2 channels
Channel layout                 : L R
Sampling rate                  : 48.0 kHz
Frame rate                     : 46.875 FPS (1024 SPF)
Compression mode               : Lossy
Delay relative to video        : -26 ms
Stream size                    : 84.9 MiB (7%)
Title                          : GOPISAHI
Language                       : English

Audio #2
Format                         : AAC LC
Duration                       : 2 h 3 min
Bit rate                       : 96.0 kb/s
Channel(s)                     : 2 channels
Channel layout                 : L R
Sampling rate                  : 48.0 kHz
Frame rate                     : 46.875 FPS (1024 SPF)
Compression mode               : Lossy
Delay relative to video        : -26 ms
Stream size                    : 84.9 MiB (7%)
Title                          : GOPISAHI
Language                       : Hindi

Audio #3
Format                         : AAC LC
Duration                       : 2 h 3 min
Bit rate                       : 96.0 kb/s
Channel(s)                     : 2 channels
Channel layout                 : L R
Sampling rate                  : 48.0 kHz
Frame rate                     : 46.875 FPS (1024 SPF)
Compression mode               : Lossy
Delay relative to video        : -26 ms
Stream size                    : 84.9 MiB (7%)
Title                          : GOPISAHI
Language                       : Telugu

Audio #4
Format                         : AAC LC
Duration                       : 2 h 3 min
Bit rate                       : 96.0 kb/s
Channel(s)                     : 2 channels
Channel layout                 : L R
Sampling rate                  : 48.0 kHz
Frame rate                     : 46.875 FPS (1024 SPF)
Compression mode               : Lossy
Delay relative to video        : -26 ms
Stream size                    : 85.0 MiB (7%)
Title                          : GOPISAHI
Language                       : Tamil

Text
Language                       : English