Kill Bill - Vol. 1 2003 x264 720p Esub BluRay Dual Audio English Hindi GOPI SAHI

Kill Bill: Vol. 1 (2003)

Writers:

Quentin Tarantino, Quentin Tarantino (character The Bride) (as Q) |1 more credit »

8.1/10
959,362

Directed byQuentin Tarantino
Produced byLawrence Bender
Written byQuentin Tarantino
Starring
Music byRZA
CinematographyRobert Richardson
Edited bySally Menke
Production
company
Distributed byMiramax
Release date
  • October 10, 2003
Running time
111 minutes
CountryUnited States[1]
LanguageEnglish
Japanese
French
Budget$30 million[2]
Box office$180.9 million[2]




Kill Bill - Vol. 1 2003 x264 720p Esub BluRay Dual Audio English Hindi GOPI SAHI

Format                         : Matroska
Format version                 : Version 4
File size                      : 872 MiB
Duration                       : 1 h 50 min
Overall bit rate               : 1 101 kb/s
Movie name                     : Kill Bill: Vol. 1 2003 GOPI SAHI

Video
Format                         : AVC
Format/Info                    : Advanced Video Codec
Format profile                 : [email protected]
Format settings                : CABAC / 5 Ref Frames
Format settings, CABAC         : Yes
Format settings, Reference fra : 5 frames
Codec ID                       : V_MPEG4/ISO/AVC
Duration                       : 1 h 50 min
Bit rate                       : 899 kb/s
Width                          : 1 280 pixels
Height                         : 534 pixels
Display aspect ratio           : 2.40:1
Frame rate mode                : Constant
Frame rate                     : 23.976 (24000/1001) FPS
Color space                    : YUV
Chroma subsampling             : 4:2:0
Bit depth                      : 8 bits
Scan type                      : Progressive
Bits/(Pixel*Frame)             : 0.055
Stream size                    : 712 MiB (82%)
Title                          : GOPI SAHI
Writing library                : x264 core 148

Audio #1
Format                         : AAC LC
Duration                       : 1 h 50 min
Bit rate                       : 96.0 kb/s
Channel(s)                     : 2 channels
Channel layout                 : L R
Sampling rate                  : 48.0 kHz
Frame rate                     : 46.875 FPS (1024 SPF)
Compression mode               : Lossy
Delay relative to video        : -21 ms
Stream size                    : 76.6 MiB (9%)
Title                          : GOPI SAHI
Language                       : Hindi

Audio #2
Format                         : AAC LC
Duration                       : 1 h 50 min
Bit rate                       : 96.0 kb/s
Channel(s)                     : 2 channels
Channel layout                 : L R
Sampling rate                  : 48.0 kHz
Frame rate                     : 46.875 FPS (1024 SPF)
Compression mode               : Lossy
Delay relative to video        : -21 ms
Stream size                    : 76.4 MiB (9%)
Title                          : GOPI SAHI
Language                       : English

Text #1
Format                         : PGS
Language                       : English

Text #2
Format                         : PGS
Language                       : English

Menu
00:00:00.000                   : :"Do You Find Me Sadistic?"
00:02:27.856                   : :Main Titles: Bang Bang
00:05:08.350                   : :Chapter One: 2
00:09:50.215                   : :"We'll Have Us a Knife Fight"
00:16:08.801                   : :Chapter Two: The Blood-Splattered Bride
00:19:52.191                   : :"Word of Advice !*#@-Head, Don't You Ever Wake Up"
00:25:12.219                   : :"My Name Is Buck, and I'm Here to *#@%"
00:32:19.062                   : :"Wiggle Your Big Toe"
00:35:57.656                   : :Chapter Three: The Origin of O-Ren
00:45:02.575                   : :Chapter Four: The Man from Okinawa
00:50:30.861                   : :"Funny, You Like Samurai Swords, I Like Baseball"
00:58:39.725                   : :Chapter Five: Showdown at House of Blue Leaves
01:04:35.163                   : :"The 5, 6, 7, 8's"
01:13:12.221                   : :You Must Be Gogo
01:21:39.436                   : :The Crazy 88's
01:30:05.734                   : :"That Really Was a Hanzo Sword"
01:38:37.078                   : :"They'll All Soon Be As Dead As O-Ren"
01:41:46.142                   : :"Revenge Is Never a Straight Line"
01:43:19.443                   : :End Credits