Kung Fu Hustle 2004 x264 720p Esub BluRay Dual Audio Hindi Chinese GOPI SAHI

Kung Fu Hustle (2004)

Kung fu (original title)
In Shanghai, China in the 1940s, a wannabe gangster aspires to join the notorious "Axe Gang" while residents of a housing complex exhibit extraordinary powers in defending their turf.

Director:

Stephen Chow

Writers:

Stephen Chow, Kan-Cheung Tsang (as Tsang Kan Cheong) |2 more credits »

7.7/10
122,153

Chinese功夫
CantoneseGūng11
Directed byStephen Chow
Produced by
Written by
  • Stephen Chow
  • Huo Xin
  • Chan Man-keung
  • Tsang Kan-cheung
Starring
Music byRaymond Wong
CinematographyPoon Hang-sang
Edited byAngie Lam
Production
company
Distributed byColumbia Pictures (International)
Release date
  • 14 September 2004 (TIFF)
  • 23 December 2004 (Hong Kong)
Running time
98 minutes[1]
CountryHong Kong
China[2]
LanguageCantonese[1]
Budget$20 million[3]
Box office$102 million[3]





Kung Fu Hustle 2004 x264 720p Esub BluRay Dual Audio Hindi Chinese GOPI SAHI

Format                         : Matroska
Format version                 : Version 4
File size                      : 778 MiB
Duration                       : 1 h 39 min
Overall bit rate               : 1 093 kb/s
Movie name                     : Kung Fu Hustle 2004 GOPI SAHI

Video
Format                         : AVC
Format/Info                    : Advanced Video Codec
Format profile                 : [email protected]
Format settings                : CABAC / 5 Ref Frames
Format settings, CABAC         : Yes
Format settings, Reference fra : 5 frames
Codec ID                       : V_MPEG4/ISO/AVC
Duration                       : 1 h 39 min
Bit rate                       : 899 kb/s
Width                          : 1 280 pixels
Height                         : 534 pixels
Display aspect ratio           : 2.40:1
Frame rate mode                : Constant
Frame rate                     : 23.976 (24000/1001) FPS
Color space                    : YUV
Chroma subsampling             : 4:2:0
Bit depth                      : 8 bits
Scan type                      : Progressive
Bits/(Pixel*Frame)             : 0.055
Stream size                    : 639 MiB (82%)
Title                          : GOPI SAHI
Writing library                : x264 core 148

Audio #1
Format                         : AAC LC
Duration                       : 1 h 39 min
Bit rate                       : 96.0 kb/s
Channel(s)                     : 2 channels
Channel layout                 : L R
Sampling rate                  : 48.0 kHz
Frame rate                     : 46.875 FPS (1024 SPF)
Compression mode               : Lossy
Delay relative to video        : -21 ms
Stream size                    : 68.6 MiB (9%)
Title                          : GOPI SAHI
Language                       : Hindi

Audio #2
Format                         : AAC LC
Duration                       : 1 h 39 min
Bit rate                       : 96.0 kb/s
Channel(s)                     : 2 channels
Channel layout                 : L R
Sampling rate                  : 48.0 kHz
Frame rate                     : 46.875 FPS (1024 SPF)
Compression mode               : Lossy
Delay relative to video        : -21 ms
Stream size                    : 68.6 MiB (9%)
Title                          : GOPI SAHI
Language                       : Chinese

Text
Language                       : English






Post a Comment

0 Comments