Little Women 2020 x264 720p Esub BluRay Dual Audio Hindi English Tamil Telugu GOPI SAHI

Little Women (2019)
Jo March reflects back and forth on her life, telling the beloved story of the March sisters - four young women, each determined to live life on her own terms.

Director:

Greta Gerwig

Writers:

Greta Gerwig (written for the screen by), Louisa May Alcott (based on the novel by)

7.9/10



Directed byGreta Gerwig
Produced by
Screenplay byGreta Gerwig
Based onLittle Women
by Louisa May Alcott
Starring
Music byAlexandre Desplat
CinematographyYorick Le Saux
Edited byNick Houy
Production
company
Distributed bySony Pictures Releasing
Release date
  • December 7, 2019 (MoMA)
  • December 25, 2019 (United States)
Running time
135 minutes[1]
CountryUnited States
LanguageEnglish
Budget$40 million[2]
Box office$206 million[3][4]



Little Women 2020 x264 720p Esub BluRay Dual Audio Hindi English Tamil Telugu GOPI SAHI


Format                                   : Matroska
Format version                           : Version 4 / Version 2
File size                                : 1.21 GiB
Duration                                 : 2 h 14 min
Overall bit rate                         : 1 289 kb/s
Movie name                               : Little Women 2020 GOPI SAHI

Video
Format                                   : AVC
Format/Info                              : Advanced Video Codec
Format profile                           : [email protected]
Format settings                          : CABAC / 5 Ref Frames
Format settings, CABAC                   : Yes
Format settings, ReFrames                : 5 frames
Codec ID                                 : V_MPEG4/ISO/AVC
Duration                                 : 2 h 14 min
Bit rate                                 : 899 kb/s
Width                                    : 1 280 pixels
Height                                   : 690 pixels
Display aspect ratio                     : 1.85:1
Frame rate mode                          : Constant
Frame rate                               : 23.976 (24000/1001) FPS
Color space                              : YUV
Chroma subsampling                       : 4:2:0
Bit depth                                : 8 bits
Scan type                                : Progressive
Bits/(Pixel*Frame)                       : 0.042
Stream size                              : 867 MiB (70%)
Title                                    : GOPI SAHI
Writing library                          : x264 core 148

Audio #1
Format                                   : AAC
Duration                                 : 2 h 14 min
Bit rate                                 : 96.0 kb/s
Channel(s)                               : 2 channels
Channel positions                        : Front: L R
Sampling rate                            : 48.0 kHz
Frame rate                               : 46.875 FPS (1024 SPF)
Compression mode                         : Lossy
Delay relative to video                  : -21 ms
Stream size                              : 92.7 MiB (7%)
Title                                    : GOPI SAHI
Language                                 : Hindi

Audio #2
Format                                   : AAC
Duration                                 : 2 h 14 min
Bit rate                                 : 96.0 kb/s
Channel(s)                               : 2 channels
Channel positions                        : Front: L R
Sampling rate                            : 48.0 kHz
Frame rate                               : 46.875 FPS (1024 SPF)
Compression mode                         : Lossy
Delay relative to video                  : -21 ms
Stream size                              : 92.7 MiB (7%)
Title                                    : GOPI SAHI
Language                                 : English

Audio #3
Format                                   : AAC
Duration                                 : 2 h 14 min
Bit rate                                 : 96.0 kb/s
Channel(s)                               : 2 channels
Channel positions                        : Front: L R
Sampling rate                            : 48.0 kHz
Frame rate                               : 46.875 FPS (1024 SPF)
Compression mode                         : Lossy
Delay relative to video                  : -21 ms
Stream size                              : 92.7 MiB (7%)
Title                                    : GOPI SAHI
Language                                 : Tamil

Audio #4
Format                                   : AAC
Duration                                 : 2 h 14 min
Bit rate                                 : 96.0 kb/s
Channel(s)                               : 2 channels
Channel positions                        : Front: L R
Sampling rate                            : 48.0 kHz
Frame rate                               : 46.875 FPS (1024 SPF)
Compression mode                         : Lossy
Delay relative to video                  : -21 ms
Stream size                              : 92.9 MiB (7%)
Title                                    : GOPI SAHI
Language                                 : Telugu

Text #1
Language                                 : English

Text #2
Language                                 : Hindi

Text #3%)
Title                                    : GOPI SAHI
Language                                 : Tamil


Text #4
Language                                 : Telugu