Live And Let Die 1973 x264 720p Esub BluRay Dual Audio Hindi English GOPI SAHI

Live and Let Die (1973)

James Bond is sent to stop a diabolically brilliant heroin magnate armed with a complex organisation and a reliable psychic tarot card reader.

Director:

Guy Hamilton

Writer:

Tom Mankiewicz (screenplay)

6.8/10
92,499

Directed byGuy Hamilton
Produced byHarry Saltzman
Albert R. Broccoli
Screenplay byTom Mankiewicz
Based onLive and Let Die
by Ian Fleming
Starring
Music byGeorge Martin
CinematographyTed Moore
Edited by
Production
company
Distributed byUnited Artists
Release date
  • 27 June 1973 (United States)
Running time
121 minutes
CountryUnited States
United Kingdom
LanguageEnglish
Budget$7 million
Box office$161.8 million



Live And Let Die 1973 x264 720p Esub BluRay Dual Audio Hindi English GOPI SAHI

 Format                         : Matroska
Format version                 : Version 4
File size                      : 958 MiB
Duration                       : 2 h 1 min
Overall bit rate               : 1 101 kb/s
Movie name                     : Live And Let Die 1973 GOPI SAHI

Video
Format                         : AVC
Format/Info                    : Advanced Video Codec
Format profile                 : [email protected]
Format settings                : CABAC / 5 Ref Frames
Format settings, CABAC         : Yes
Format settings, Reference fra : 5 frames
Codec ID                       : V_MPEG4/ISO/AVC
Duration                       : 2 h 1 min
Bit rate                       : 899 kb/s
Width                          : 1 280 pixels
Height                         : 692 pixels
Display aspect ratio           : 1.85:1
Frame rate mode                : Constant
Frame rate                     : 23.976 (24000/1001) FPS
Color space                    : YUV
Chroma subsampling             : 4:2:0
Bit depth                      : 8 bits
Scan type                      : Progressive
Bits/(Pixel*Frame)             : 0.042
Stream size                    : 782 MiB (82%)
Title                          : GOPI SAHI
Writing library                : x264 core 148

Audio #1
Format                         : AAC LC
Duration                       : 2 h 1 min
Bit rate                       : 96.0 kb/s
Channel(s)                     : 2 channels
Channel layout                 : L R
Sampling rate                  : 48.0 kHz
Frame rate                     : 46.875 FPS (1024 SPF)
Compression mode               : Lossy
Delay relative to video        : -21 ms
Stream size                    : 84.0 MiB (9%)
Title                          : GOPI SAHI
Language                       : Hindi

Audio #2
Format                         : AAC LC
Duration                       : 2 h 1 min
Bit rate                       : 96.0 kb/s
Channel(s)                     : 2 channels
Channel layout                 : L R
Sampling rate                  : 48.0 kHz
Frame rate                     : 46.875 FPS (1024 SPF)
Compression mode               : Lossy
Delay relative to video        : -21 ms
Stream size                    : 83.7 MiB (9%)
Title                          : GOPI SAHI
Language                       : English
Default                        : No

Text
Language                       : English





Post a Comment

0 Comments