Maleficent Mistress Of Evil 2019 x264 720p Esub BluRay Dual Audio English Hindi GOPI SAHI


Maleficent: Mistress of Evil (2019)


Maleficent and her goddaughter Aurora begin to question the complex family ties that bind them as they are pulled in different directions by impending nuptials, unexpected allies and dark new forces at play.

6.7/10
61,773

Directed byJoachim Rønning
Produced by
Written by
Based on
Starring
Music byGeoff Zanelli
CinematographyHenry Braham
Edited by
Production
company
Distributed byWalt Disney Studios
Motion Pictures
Release date
  • October 18, 2019[2]
Running time
119 minutes[3]
CountryUnited States
LanguageEnglish
Budget$185 million[4]
Box office$491.7 million[3]


Maleficent Mistress Of Evil 2019 x264 720p Esub BluRay Dual Audio English Hindi GOPI SAHI

Format                         : Matroska
Format version                 : Version 4
File size                      : 1.03 GiB
Duration                       : 1 h 58 min
Overall bit rate mode          : Variable
Overall bit rate               : 1 245 kb/s
Movie name                     : MALEFICENT MISTRESS OF EVIL 2019 GOPISAHI


Video
Format                         : AVC
Format/Info                    : Advanced Video Codec
Format profile                 : [email protected]
Format settings                : CABAC / 7 Ref Frames
Format settings, CABAC         : Yes
Format settings, Reference fra : 7 frames
Codec ID                       : V_MPEG4/ISO/AVC
Duration                       : 1 h 58 min
Bit rate mode                  : Variable
Bit rate                       : 1 050 kb/s
Maximum bit rate               : 62.5 Mb/s
Width                          : 1 280 pixels
Height                         : 534 pixels
Display aspect ratio           : 2.40:1
Original display aspect ratio  : 2.40:1
Frame rate mode                : Constant
Frame rate                     : 23.976 (24000/1001) FPS
Color space                    : YUV
Chroma subsampling             : 4:2:0
Bit depth                      : 8 bits
Scan type                      : Progressive
Bits/(Pixel*Frame)             : 0.064
Stream size                    : 892 MiB (84%)
Title                          : GOPISAHI
Writing library                : x264 core 157 r2935 545de2f

Audio #1
Format                         : AAC LC
Duration                       : 1 h 58 min
Bit rate                       : 96.0 kb/s
Channel(s)                     : 2 channels
Channel layout                 : L R
Sampling rate                  : 48.0 kHz
Frame rate                     : 46.875 FPS (1024 SPF)
Compression mode               : Lossy
Stream size                    : 81.9 MiB (8%)
Title                          : GOPISAHI
Language                       : Hindi

Audio #2
Format                         : AAC LC
Duration                       : 1 h 58 min
Bit rate                       : 96.0 kb/s
Channel(s)                     : 2 channels
Channel layout                 : L R
Sampling rate                  : 48.0 kHz
Frame rate                     : 46.875 FPS (1024 SPF)
Compression mode               : Lossy
Stream size                    : 81.9 MiB (8%)
Title                          : GOPISAHI
Language                       : English

Text
Language                       : English



Post a Comment

0 Comments