Marauders 2016 x264 720p Esub Bluray Dual Audio English Hindi GOPI SAHI

Marauders (2016)

 
 
When a bank is hit by a brutal heist, all evidence points to the owner and his high-powered clients. But as a group of FBI agents dig deeper into the case - and the deadly heists continue - it becomes clear that a larger conspiracy is at play.

5.5/10


Directed bySteven C. Miller
Produced by
  • Randall Emmett
  • George Furla
  • Joshua Harris
  • Rosie Charbonneau
  • Mark Stewart
Written by
Starring
Music byRyan Dodson
CinematographyBrandon Cox
Edited byVincent Tabaillon
Production
companies
Distributed byLionsgate Premiere
Release date
  • July 1, 2016
Running time
107 minutes [1]
CountryUnited States
LanguageEnglish
Box office$1 million[2]



Marauders 2016 x264 720p Esub Bluray Dual Audio English Hindi GOPI SAHI

Format                         : Matroska
Format version                 : Version 4
File size                      : 864 MiB
Duration                       : 1 h 47 min
Overall bit rate               : 1 127 kb/s
Movie name                     : Marauders 2016 GOPISAHI

Video
Format                         : AVC
Format/Info                    : Advanced Video Codec
Format profile                 : [email protected]
Format settings                : CABAC / 5 Ref Frames
Format settings, CABAC         : Yes
Format settings, Reference fra : 5 frames
Codec ID                       : V_MPEG4/ISO/AVC
Duration                       : 1 h 47 min
Bit rate                       : 899 kb/s
Width                          : 1 280 pixels
Height                         : 534 pixels
Display aspect ratio           : 2.40:1
Frame rate mode                : Constant
Frame rate                     : 23.976 (24000/1001) FPS
Color space                    : YUV
Chroma subsampling             : 4:2:0
Bit depth                      : 8 bits
Scan type                      : Progressive
Bits/(Pixel*Frame)             : 0.055
Stream size                    : 689 MiB (80%)
Title                          : GOPISAHI
Writing library                : x264 core 148

Audio #1
Format                         : AAC LC
Format/Info                    : Advanced Audio Codec Low Complexity
Codec ID                       : A_AAC-2
Duration                       : 1 h 47 min
Bit rate                       : 96.0 kb/s
Channel(s)                     : 2 channels
Channel layout                 : L R
Sampling rate                  : 48.0 kHz
Frame rate                     : 46.875 FPS (1024 SPF)
Compression mode               : Lossy
Delay relative to video        : -21 ms
Stream size                    : 73.7 MiB (9%)
Title                          : GOPISAHI
Language                       : Hindi

Audio #2
Format                         : AAC LC

Duration                       : 1 h 47 min
Bit rate                       : 96.0 kb/s
Channel(s)                     : 2 channels
Channel layout                 : L R
Sampling rate                  : 48.0 kHz
Frame rate                     : 46.875 FPS (1024 SPF)
Compression mode               : Lossy
Delay relative to video        : -21 ms
Stream size                    : 73.9 MiB (9%)
Title                          : GOPISAHI
Language                       : English

Text #1
Format                         : PGS
Language                       : English

Text #2
Language                       : English





Post a Comment

0 Comments