Norm of the North 2016 x264 720p Esub BluRay Dual Audio English Hindi GOPI SAHI

Norm of the North (2016)


When a real estate development invades his Arctic home, Norm and his three lemming friends head to New York City, where Norm becomes the mascot of the corporation in an attempt to bring it down from the inside and protect his homeland.

Director:

Trevor Wall

Writers:

Malcolm T. Goldman (screenplay by), Steven Altiere (screenplay by) |1 more credit »
3.4/10
8,386 

Directed byTrevor Wall
Produced by
  • Nicolas Atlan
  • Ken Katsumoto
  • Steve Rosen
  • Liz Young
  • Mike Young
Written by
  • Daniel R. Altiere
  • Steven M. Altiere
  • Malcolm T. Goldman
Starring
Music byStephen McKeon
Edited byRichard Finn
Production
company
Distributed byLionsgate
Release date
  • January 15, 2016 (United States)[1]
  • March 18, 2016 (Ireland)
Running time
88 minutes[2]
CountryUnited States
India
Ireland
LanguageEnglish
Budget$18 million[3]
Box office$30.5 million[4]



Norm of the North 2016 x264 720p Esub BluRay Dual Audio English Hindi GOPI SAHI

Format : Matroska
Format version : Version 4 / Version 2
File size : 716 MiB
Duration : 1 h 30 min
Overall bit rate : 1 106 kb/s
Movie name : Norm of the North 2016 GOPI SAHI

Video
Format : AVC
Format/Info : Advanced Video Codec
Format profile : [email protected]
Format settings : CABAC / 5 Ref Frames
Format settings, CABAC : Yes
Format settings, ReFrames : 5 frames
Codec ID : V_MPEG4/ISO/AVC
Duration : 1 h 30 min
Bit rate : 899 kb/s
Width : 1 280 pixels
Height : 690 pixels
Display aspect ratio : 1.85:1
Frame rate mode : Constant
Frame rate : 23.976 (24000/1001) FPS
Color space : YUV
Chroma subsampling : 4:2:0
Bit depth : 8 bits
Scan type : Progressive
Bits/(Pixel*Frame) : 0.042
Stream size : 581 MiB (81%)
Title : GOPI SAHI
Writing library : x264 core 148

Audio #1
Format : AAC
Codec ID : A_AAC-2
Duration : 1 h 30 min
Bit rate : 109 kb/s
Channel(s) : 2 channels
Channel positions : Front: L R
Sampling rate : 48.0 kHz
Frame rate : 46.875 FPS (1024 SPF)
Compression mode : Lossy
Delay relative to video : 16 s 29 ms
Stream size : 70.3 MiB (10%)
Title : GOPI SAHI
Language : Hindi

Audio #2
Format : AAC
Format/Info : Advanced Audio Codec
Duration : 1 h 30 min
Bit rate : 96.0 kb/s
Channel(s) : 2 channels
Channel positions : Front: L R
Sampling rate : 48.0 kHz
Frame rate : 46.875 FPS (1024 SPF)
Compression mode : Lossy
Delay relative to video : -21 ms
Stream size : 62.4 MiB (9%)
Title : GOPI SAHI
Language : English

Text
Language : English







Post a Comment

0 Comments