Purush 2020 x264 720p HD Hindi GOPI SAHI

Dwitiyo Purush (2020)

A crime repeats its pattern after 25 years .Is it the same killer or a new psycho on the streets?

Director:

Srijit Mukherji

6.1/10
908

Directed bySrijit Mukherji
Produced byShree Venkatesh Films
Written bySuvonkar Banerjee, Srijit Mukherji
Screenplay bySrijit Mukherji
Story bySuvonkar Banerjee and Srijit Mukherji
StarringParambrata Chatterjee, Raima Sen, Abir Chatterjee, Anirban Bhattacharya
Narrated byParambrata Chattopadhyay
Music byAnupam Roy
CinematographySoumik Halder
Edited byPronoy Dasgupta
Production
company
Distributed byShree Venkatesh Films
Release date
  • 23 January 2020
Running time
128 minutes
CountryIndia
LanguageBengali
Box officeest. ₹4.75Crore





Purush 2020 x264 720p HD Hindi GOPI SAHI

Format                         : Matroska
Format version                 : Version 4
File size                      : 704 MiB
Duration                       : 1 h 38 min
Overall bit rate               : 997 kb/s
Movie name                     : Purush 2020 GOPISAHI

Video
ID                             : 1
Format                         : AVC
Format/Info                    : Advanced Video Codec
Format profile                 : [email protected]
Format settings                : CABAC / 5 Ref Frames
Format settings, CABAC         : Yes
Format settings, Reference fra : 5 frames
Codec ID                       : V_MPEG4/ISO/AVC
Duration                       : 1 h 38 min
Bit rate                       : 899 kb/s
Width                          : 1 280 pixels
Height                         : 720 pixels
Display aspect ratio           : 16:9
Frame rate mode                : Constant
Frame rate                     : 25.000 FPS
Color space                    : YUV
Chroma subsampling             : 4:2:0
Bit depth                      : 8 bits
Scan type                      : Progressive
Bits/(Pixel*Frame)             : 0.039
Stream size                    : 634 MiB (90%)
Title                          : GOPISAHI
Writing library                : x264 core 157 r2935 545de2f

Audio
Format                         : AAC LC
Format/Info                    : Advanced Audio Codec Low Complexity
Codec ID                       : A_AAC-2
Duration                       : 1 h 38 min
Bit rate                       : 96.0 kb/s
Channel(s)                     : 2 channels
Channel layout                 : L R
Sampling rate                  : 48.0 kHz
Frame rate                     : 46.875 FPS (1024 SPF)
Compression mode               : Lossy
Delay relative to video        : -21 ms
Stream size                    : 67.9 MiB (10%)
Title                          : GOPISAHI





Post a Comment

0 Comments