Resident Evil- The Final Chapter 2016 x264 720p Esub BluRay Dual Audio English Hindi GOPI SAHI

Resident Evil: The Final Chapter (2016)

Alice returns to where the nightmare began: The Hive in Raccoon City, where the Umbrella Corporation is gathering its forces for a final strike against the only remaining survivors of the apocalypse.

5.5/10




irected byPaul W. S. Anderson
Produced by
Written byPaul W. S. Anderson
Based onResident Evil
by Capcom
Starring
Music byPaul Haslinger
CinematographyGlen MacPherson
Edited byDoobie White
Production
companies
Distributed bySony Pictures Releasing
Release date
  • December 23, 2016 (Tokyo)
  • January 25, 2017 (France)
  • January 26, 2017 (Germany)
  • January 27, 2017 (United States)
  • February 3, 2017 (United Kingdom)
Running time
106 minutes[1]
Country
LanguageEnglish
Budget$40 million[4][5]
Box office$312.2 million[5]




Resident Evil- The Final Chapter 2016 x264 720p Esub BluRay Dual Audio English Hindi GOPI SAHI

Format                         : Matroska
Format version                 : Version 4
File size                      : 839 MiB
Duration                       : 1 h 46 min
Overall bit rate               : 1 100 kb/s
Movie name                     : Resident Evil: The Final Chapter 2016 GOPI SAHI

Video
Format                         : AVC
Format/Info                    : Advanced Video Codec
Format profile                 : [email protected]
Format settings                : CABAC / 5 Ref Frames
Format settings, CABAC         : Yes
Format settings, Reference fra : 5 frames
Codec ID                       : V_MPEG4/ISO/AVC
Duration                       : 1 h 46 min
Bit rate                       : 899 kb/s
Width                          : 1 280 pixels
Height                         : 534 pixels
Display aspect ratio           : 2.40:1
Frame rate mode                : Constant
Frame rate                     : 23.976 (24000/1001) FPS
Color space                    : YUV
Chroma subsampling             : 4:2:0
Bit depth                      : 8 bits
Scan type                      : Progressive
Bits/(Pixel*Frame)             : 0.055
Stream size                    : 685 MiB (82%)
Title                          : GOPI SAHI
Writing library                : x264 core 157 r2935 545de2f

Audio #1
Format                         : AAC LC
Duration                       : 1 h 46 min
Bit rate                       : 96.0 kb/s
Channel(s)                     : 2 channels
Channel layout                 : L R
Sampling rate                  : 48.0 kHz
Frame rate                     : 46.875 FPS (1024 SPF)
Compression mode               : Lossy
Stream size                    : 73.8 MiB (9%)
Title                          : GOPI SAHI
Language                       : Hindi

Audio #2
Format                         : AAC LC
Duration                       : 1 h 46 min
Bit rate                       : 96.0 kb/s
Channel(s)                     : 2 channels
Channel layout                 : L R
Sampling rate                  : 48.0 kHz
Frame rate                     : 46.875 FPS (1024 SPF)
Compression mode               : Lossy
Delay relative to video        : 20 ms
Stream size                    : 73.7 MiB (9%)
Title                          : GOPI SAHI
Language                       : English

Text
Format                         : PGS
Language                       : English

Menu
00:00:00.000                   : en:Chapter 1
00:05:39.673                   : en:Chapter 2
00:11:18.177                   : en:Chapter 3
00:17:00.102                   : en:Chapter 4
00:22:36.146                   : en:Chapter 5
00:27:21.932                   : en:Chapter 6
00:33:38.475                   : en:Chapter 7
00:40:47.612                   : en:Chapter 8
00:46:36.127                   : en:Chapter 9
00:53:18.779                   : en:Chapter 10
01:03:18.670                   : en:Chapter 11
01:10:47.869                   : en:Chapter 12
01:15:37.575                   : en:Chapter 13
01:22:57.806                   : en:Chapter 14
01:28:32.891                   : en:Chapter 15
01:35:07.452                   : en:Chapter 16




Post a Comment

0 Comments