Solace 2015 x264 720p Esub BluRay Dual Audio English Hindi GOPI SAHI

Solace (2015)

Psychic John Clancy (Sir Anthony Hopkins) works with the F.B.I. in order to hunt down a serial killer.

Director:

Afonso Poyart
6.4/10
52,688

Directed byAfonso Poyart
Produced by
Screenplay by
Starring
Music byBT[1][2]
CinematographyBrendan Galvin
Edited byLucas Gonzaga
Production
companies
Distributed byLionsgate Premiere
Release date
  • September 9, 2015 (TIFF)
  • December 16, 2016 (United States)
Running time
101 minutes[4]
CountryUnited States
LanguageEnglish
Box office$22.4 million[5]




Solace 2015 x264 720p Esub BluRay Dual Audio English Hindi GOPI SAHI

Format                         : Matroska
Format version                 : Version 4
File size                      : 792 MiB
Duration                       : 1 h 41 min
Overall bit rate               : 1 094 kb/s
Movie name                     : Solace 2015 GOPISAHI

Video
Format                         : AVC
Format/Info                    : Advanced Video Codec
Format profile                 : [email protected]
Format settings                : CABAC / 5 Ref Frames
Format settings, CABAC         : Yes
Format settings, Reference fra : 5 frames
Codec ID                       : V_MPEG4/ISO/AVC
Duration                       : 1 h 41 min
Bit rate                       : 899 kb/s
Width                          : 1 280 pixels
Height                         : 530 pixels
Display aspect ratio           : 2.40:1
Frame rate mode                : Constant
Frame rate                     : 23.976 (24000/1001) FPS
Color space                    : YUV
Chroma subsampling             : 4:2:0
Bit depth                      : 8 bits
Scan type                      : Progressive
Bits/(Pixel*Frame)             : 0.055
Stream size                    : 650 MiB (82%)
Title                          : GOPISAHI
Writing library                : x264 core 157 r2935 545de2f

Audio #1
Format                         : AAC LC
Duration                       : 1 h 41 min
Bit rate                       : 96.0 kb/s
Channel(s)                     : 2 channels
Channel layout                 : L R
Sampling rate                  : 48.0 kHz
Frame rate                     : 46.875 FPS (1024 SPF)
Compression mode               : Lossy
Delay relative to video        : -21 ms
Stream size                    : 69.8 MiB (9%)
Title                          : GOPISAHI
Language                       : Hindi

Audio #2
Format                         : AAC LC
Duration                       : 1 h 41 min
Bit rate                       : 96.0 kb/s
Channel(s)                     : 2 channels
Channel layout                 : L R
Sampling rate                  : 48.0 kHz
Frame rate                     : 46.875 FPS (1024 SPF)
Compression mode               : Lossy
Delay relative to video        : -21 ms
Stream size                    : 69.8 MiB (9%)
Title                          : GOPISAHI
Language                       : English

Text
Language                       : English




Post a Comment

0 Comments