Star Trek 2009 x264 720p Esub BluRay Dual Audio English Hindi GOPI SAHI

In the Line of Fire (1993)

Secret Service agent Frank Horrigan (Clint Eastwood) couldn't save Kennedy, but he's determined not to let a clever assassin take out this president.

Writer:

Jeff Maguire
7.2/10

Directed byJ. J. Abrams
Produced by
Written by
Based onStar Trek
by Gene Roddenberry
Starring
Music byMichael Giacchino
CinematographyDan Mindel
Edited by
Production
companies
Distributed byParamount Pictures
Release date
Running time
127 minutes[1]
CountryUnited States
LanguageEnglish
Budget$150 million[2]
Box office$385.7 million[2]




Star Trek 2009 x264 720p Esub BluRay Dual Audio English Hindi GOPI SAHI

Format                         : Matroska
Format version                 : Version 4
File size                      : 993 MiB
Duration                       : 2 h 6 min
Overall bit rate               : 1 094 kb/s
Movie name                     : Star Trek 2009 GOPISAHI


Video        
Format                         : AVC
Format/Info                    : Advanced Video Codec
Format profile                 : [email protected]
Format settings                : CABAC / 5 Ref Frames
Format settings, CABAC         : Yes
Format settings, Reference fra : 5 frames
Codec ID                       : V_MPEG4/ISO/AVC
Duration                       : 2 h 6 min
Bit rate                       : 899 kb/s
Width                          : 1 280 pixels
Height                         : 534 pixels
Display aspect ratio           : 2.40:1
Frame rate mode                : Constant
Frame rate                     : 23.976 (24000/1001) FPS
Color space                    : YUV
Chroma subsampling             : 4:2:0
Bit depth                      : 8 bits
Scan type                      : Progressive
Bits/(Pixel*Frame)             : 0.055
Stream size                    : 815 MiB (82%)
Title                          : GOPISAHI
Writing library                : x264 core 157 r2935 545de2f

Audio #1
Format                         : AAC LC
Format/Info                    : Advanced Audio Codec Low Complexity
Codec ID                       : A_AAC-2
Duration                       : 2 h 6 min
Bit rate                       : 96.0 kb/s
Channel(s)                     : 2 channels
Channel layout                 : L R
Sampling rate                  : 48.0 kHz
Frame rate                     : 46.875 FPS (1024 SPF)
Compression mode               : Lossy
Delay relative to video        : 141 ms
Stream size                    : 87.3 MiB (9%)
Title                          : GOPISAHI
Language                       : Hindi

Audio #2
Format                         : AAC LC
Duration                       : 2 h 6 min
Bit rate                       : 96.0 kb/s
Channel(s)                     : 2 channels
Channel layout                 : L R
Sampling rate                  : 48.0 kHz
Frame rate                     : 46.875 FPS (1024 SPF)
Compression mode               : Lossy
Delay relative to video        : -21 ms
Stream size                    : 87.3 MiB (9%)
Title                          : GOPISAHI
Language                       : English

Text
Language                       : English

Menu
00:00:00.000                   : :Chapter 1
00:11:57.217                   : :Chapter 2
00:19:45.184                   : :Chapter 3
00:28:09.229                   : :Chapter 4
00:35:33.506                   : :Chapter 5
00:44:10.565                   : :Chapter 6
00:52:21.722                   : :Chapter 7
01:01:33.607                   : :Chapter 8
01:11:40.087                   : :Chapter 9
01:20:39.543                   : :Chapter 10
01:27:35.292                   : :Chapter 11
01:36:29.575                   : :Chapter 12
01:44:34.310                   : :Chapter 13
01:53:13.412                   : :Chapter 14
01:58:20.552                   : :Chapter 15






Post a Comment

0 Comments