The Jungle Book 2016 720p Esub BluRay x264 Dual Audio Hindi English GOPI SAHI

The Jungle Book (2016)

After a threat from the tiger Shere Khan forces him to flee the jungle, a man-cub named Mowgli embarks on a journey of self discovery with the help of panther Bagheera and free-spirited bear Baloo.

Director:

Jon Favreau

Writers:

Justin Marks (screenplay by), Rudyard Kipling (based on the books by)
 
7.4/10
250,961
Directed byJon Favreau
Produced by
Screenplay byJustin Marks
Based onThe Jungle Book
by Rudyard Kipling
Starring
Music byJohn Debney
CinematographyBill Pope
Edited byMark Livolsi
Production
company
Distributed byWalt Disney Studios
Motion Pictures
Release date
Running time
106 minutes
CountryUnited States[1]
LanguageEnglish
Budget$175–177 million[2] [3]
Box office$966.6 million[4]



The Jungle Book 2016 720p Esub BluRay x264 Dual Audio Hindi English GOPI SAHI

Format                         : Matroska
Format version                 : Version 4
File size                      : 855 MiB
Duration                       : 1 h 45 min
Overall bit rate               : 1 128 kb/s
Movie name                     : The Jungle Book 2016 GOPISAHI

Video
Format                         : AVC
Format/Info                    : Advanced Video Codec
Format profile                 : [email protected]
Format settings                : CABAC / 5 Ref Frames
Format settings, CABAC         : Yes
Format settings, Reference fra : 5 frames
Codec ID                       : V_MPEG4/ISO/AVC
Duration                       : 1 h 45 min
Bit rate                       : 899 kb/s
Width                          : 1 280 pixels
Height                         : 720 pixels
Display aspect ratio           : 16:9
Frame rate mode                : Constant
Frame rate                     : 23.976 (24000/1001) FPS
Color space                    : YUV
Chroma subsampling             : 4:2:0
Bit depth                      : 8 bits
Scan type                      : Progressive
Bits/(Pixel*Frame)             : 0.041
Stream size                    : 681 MiB (80%)
Title                          : GOPISAHI
Writing library                : x264 core 148

Audio #1
Format                         : AAC LC
Duration                       : 1 h 45 min
Bit rate                       : 96.0 kb/s
Channel(s)                     : 2 channels
Channel layout                 : L R
Sampling rate                  : 48.0 kHz
Frame rate                     : 46.875 FPS (1024 SPF)
Compression mode               : Lossy
Delay relative to video        : -21 ms
Stream size                    : 72.8 MiB (9%)
Title                          : GOPISAHI
Language                       : Hindi

Audio #2
Format                         : AAC LC
Duration                       : 1 h 45 min
Bit rate                       : 96.0 kb/s
Channel(s)                     : 2 channels
Channel layout                 : L R
Sampling rate                  : 48.0 kHz
Frame rate                     : 46.875 FPS (1024 SPF)
Compression mode               : Lossy
Delay relative to video        : -21 ms
Stream size                    : 72.9 MiB (9%)
Title                          : GOPISAHI
Language                       : English

Text #1
Format                         : PGS
Language                       : English

Text #2
Format                         : PGS
Language                       : English

Text #3
Language                       : Hindi

Menu #1
00:00:00.000                   : :00:00:00.000
00:00:48.340                   : :00:00:48.215
00:05:15.315                   : :00:05:15.315
00:09:02.459                   : :00:09:02.459
00:12:42.220                   : :00:12:42.178
00:16:34.452                   : :00:16:34.452
00:21:20.154                   : :00:21:20.029
00:27:15.134                   : :00:27:15.133
00:35:04.269                   : :00:35:04.144
00:43:21.808                   : :00:43:21.724
00:48:05.132                   : :00:48:05.132
00:53:29.248                   : :00:53:29.248
00:58:03.271                   : :00:58:03.271
01:05:46.443                   : :01:05:46.442
01:10:35.523                   : :01:10:35.523
01:17:01.325                   : :01:17:01.325
01:20:48.927                   : :01:20:48.927
01:24:46.540                   : :01:24:46.540
01:30:32.969                   : :01:30:32.969
01:35:53.289                   : :01:35:53.206

Menu #2
00:00:00.000                   : en:00:00:00.000
00:00:48.215                   : en:00:00:48.215
00:05:15.315                   : en:00:05:15.315
00:09:02.459                   : en:00:09:02.459
00:12:42.178                   : en:00:12:42.178
00:16:34.452                   : en:00:16:34.452
00:21:20.029                   : en:00:21:20.029
00:27:15.133                   : en:00:27:15.133
00:35:04.144                   : en:00:35:04.144
00:43:21.724                   : en:00:43:21.724
00:48:05.132                   : en:00:48:05.132
00:53:29.248                   : en:00:53:29.248
00:58:03.271                   : en:00:58:03.271
01:05:46.442                   : en:01:05:46.442
01:10:35.523                   : en:01:10:35.523
01:17:01.325                   : en:01:17:01.325
01:20:48.927                   : en:01:20:48.927
01:24:46.540                   : en:01:24:46.540
01:30:32.969                   : en:01:30:32.969
01:35:53.206                   : en:01:35:53.206






Post a Comment

0 Comments