The Tuxedo 2002 x264 720p Bluray Dual Audio Hindi Telugu Tamil GOPI SAHI

The Tuxedo (2002)

A hapless chauffeur must take a comatose Secret Agent's place using his special gadget-laden tuxedo.

Director:

Kevin Donovan

Writers:

Phil Hay (story), Matt Manfredi (story) |3 more credits »
5.4/10
76,517

Directed byKevin Donovan
Produced byAdam Schroeder
John H. Williams
Screenplay byMichael J. Wilson
Michael J. Leeson
Story byPhil Hay
Matt Manfredi
Michael J. Wilson
Starring
Music byChristophe Beck
John Debney
CinematographyStephen F. Windon
Edited byCraig Herring
Production
company
Blue Train Productions
DreamWorks SKG
Parkes / MacDonald Productions
Vanguard Films (uncredited)
Distributed byDreamWorks Pictures
Release date
  • September 27, 2002
Running time
98 minutes
CountryUnited States
LanguageEnglish[1]
Budget$60 million[2][3]
Box office$104.4 million[2][3]




The Tuxedo 2002 x264 720p Bluray Dual Audio Hindi Telugu Tamil GOPI SAHI

Format                         : Matroska
Format version                 : Version 4
File size                      : 842 MiB
Duration                       : 1 h 38 min
Overall bit rate               : 1 192 kb/s
Movie name                     : The Tuxedo 2002 GOPISAHI

Video
Format                         : AVC
Format/Info                    : Advanced Video Codec
Format profile                 : [email protected]
Format settings                : CABAC / 5 Ref Frames
Format settings, CABAC         : Yes
Format settings, Reference fra : 5 frames
Codec ID                       : V_MPEG4/ISO/AVC
Duration                       : 1 h 38 min
Bit rate                       : 899 kb/s
Width                          : 1 280 pixels
Height                         : 720 pixels
Display aspect ratio           : 16:9
Frame rate mode                : Constant
Frame rate                     : 23.976 (24000/1001) FPS
Color space                    : YUV
Chroma subsampling             : 4:2:0
Bit depth                      : 8 bits
Scan type                      : Progressive
Bits/(Pixel*Frame)             : 0.041
Stream size                    : 635 MiB (75%)
Title                          : GOPISAHI
Writing library                : x264 core 148

Audio #1
Format                         : AAC LC
Format/Info                    : Advanced Audio Codec Low Complexity
Codec ID                       : A_AAC-2
Duration                       : 1 h 38 min
Bit rate                       : 96.0 kb/s
Channel(s)                     : 2 channels
Channel layout                 : L R
Sampling rate                  : 48.0 kHz
Frame rate                     : 46.875 FPS (1024 SPF)
Compression mode               : Lossy
Delay relative to video        : -21 ms
Stream size                    : 68.1 MiB (8%)
Title                          : GOPISAHI
Language                       : Hindi

Audio #2
Format                         : AAC LC
Format/Info                    : Advanced Audio Codec Low Complexity
Codec ID                       : A_AAC-2
Duration                       : 1 h 38 min
Bit rate                       : 96.0 kb/s
Channel(s)                     : 2 channels
Channel layout                 : L R
Sampling rate                  : 48.0 kHz
Frame rate                     : 46.875 FPS (1024 SPF)
Compression mode               : Lossy
Delay relative to video        : -21 ms
Stream size                    : 68.2 MiB (8%)
Title                          : GOPISAHI
Language                       : Tamil

Audio #3
Format                         : AAC LC
Duration                       : 1 h 38 min
Bit rate                       : 96.0 kb/s
Channel(s)                     : 2 channels
Channel layout                 : L R
Sampling rate                  : 48.0 kHz
Frame rate                     : 46.875 FPS (1024 SPF)
Compression mode               : Lossy
Delay relative to video        : -21 ms
Stream size                    : 68.1 MiB (8%)
Title                          : GOPISAHI
Language                       : Telugu







Post a Comment

0 Comments