Train to Busan 2016 720p Esub BluRay x264 Dual Audio Hindi English GOPI SAHI

Train to Busan (2016)

Busanhaeng (original title)
 
While a zombie virus breaks out in South Korea, passengers struggle to survive on the train from Seoul to Busan.

Director:

Sang-ho Yeon

Writers:

Joo-Suk Park, Sang-ho Yeon (screenplay)
7.5/10


Hangul부산
Hanja釜山
Revised RomanizationBusanhaeng
Directed byYeon Sang-ho
Produced byLee Dong-ha
Written byPark Joo-suk
Starring
Music byJang Young-gyu
CinematographyLee Hyung-deok
Edited byYang Jin-mo
Production
company
Distributed byNext Entertainment World
Release date
  • 13 May 2016 (Cannes)
  • 20 July 2016 (South Korea)
Running time
118 minutes[1]
CountrySouth Korea
LanguageKorean
Budget$8.5 million[2]
Box office$98.5 million[3][4



Train to Busan 2016 720p Esub BluRay x264 Dual Audio Hindi English GOPI SAHI

Format                         : Matroska
Format version                 : Version 4
File size                      : 930 MiB
Duration                       : 1 h 58 min
Overall bit rate               : 1 100 kb/s
Movie name                     : Train to Busan 2016 GOPI SAHI

Video
Format                         : AVC
Format/Info                    : Advanced Video Codec
Format profile                 : [email protected]
Format settings                : CABAC / 5 Ref Frames
Format settings, CABAC         : Yes
Format settings, Reference fra : 5 frames
Codec ID                       : V_MPEG4/ISO/AVC
Duration                       : 1 h 58 min
Bit rate                       : 899 kb/s
Width                          : 1 280 pixels
Height                         : 690 pixels
Display aspect ratio           : 1.85:1
Frame rate mode                : Constant
Frame rate                     : 23.976 (24000/1001) FPS
Color space                    : YUV
Chroma subsampling             : 4:2:0
Bit depth                      : 8 bits
Scan type                      : Progressive
Bits/(Pixel*Frame)             : 0.042
Stream size                    : 759 MiB (82%)
Title                          : GOPI SAHI
Writing library                : x264 core 148

Audio #1
Format                         : AAC LC
Duration                       : 1 h 58 min
Bit rate                       : 96.0 kb/s
Channel(s)                     : 2 channels
Channel layout                 : L R
Sampling rate                  : 48.0 kHz
Frame rate                     : 46.875 FPS (1024 SPF)
Compression mode               : Lossy
Delay relative to video        : 1 s 770 ms
Stream size                    : 81.5 MiB (9%)
Title                          : GOPI SAHI
Language                       : Hindi

Audio #2
Format                         : AAC LC
Duration                       : 1 h 58 min
Bit rate                       : 96.0 kb/s
Channel(s)                     : 2 channels
Channel layout                 : L R
Sampling rate                  : 48.0 kHz
Frame rate                     : 46.875 FPS (1024 SPF)
Compression mode               : Lossy
Delay relative to video        : -21 ms
Stream size                    : 81.7 MiB (9%)
Title                          : GOPI SAHI
Language                       : English

Text
Format                         : PGS
Language                       : English

Menu
00:00:00.000                   : :Chapter 1
00:11:03.955                   : :Chapter 2
00:21:40.508                   : :Chapter 3
00:31:53.078                   : :Chapter 4
00:38:48.243                   : :Chapter 5
00:43:44.580                   : :Chapter 6
00:52:43.577                   : :Chapter 7
01:05:04.651                   : :Chapter 8
01:15:27.356                   : :Chapter 9
01:20:53.640                   : :Chapter 10
01:26:36.483                   : :Chapter 11
01:37:32.805                   : :Chapter 12
01:48:16.657                   : :Chapter 13
01:53:34.099                   : :Chapter 14





Post a Comment

0 Comments