Truth Or Dare 2018 x264 720p Esub BluRay Dual Audio English Hindi GOPI SAHI


Truth or Dare (2018)

 

5.1/10

A harmless game of Truth or Dare among friends turns deadly when someone -- or something -- begins to punish those who tell a lie or refuse the dare.

Director:

Jeff Wadlow

Writers:

Michael Reisz (screenplay by), Jillian Jacobs (screenplay by) |3 more credits »



Directed byJeff Wadlow
Produced byJason Blum
Screenplay by
Story byMichael Reisz
Starring
Music byMatthew Margeson
CinematographyJacques Jouffret
Edited bySean Albertson
Production
company
Distributed byUniversal Pictures
Release date
  • April 13, 2018 (United States)
Running time
100 minutes
CountryUnited States
LanguageEnglish
Budget$3.5 million[1]
Box office$95.3 million[2]




Truth Or Dare 2018 x264 720p Esub BluRay Dual Audio English Hindi GOPI SAHI

Format                         : Matroska
Format version                 : Version 4
File size                      : 787 MiB
Duration                       : 1 h 40 min
Overall bit rate               : 1 095 kb/s
Movie name                     : Truth Or Dare 2018 GOPISAHI

Video
Format                         : AVC
Format/Info                    : Advanced Video Codec
Format profile                 : [email protected]
Format settings                : CABAC / 12 Ref Frames
Format settings, CABAC         : Yes
Format settings, Reference fra : 12 frames
Codec ID                       : V_MPEG4/ISO/AVC
Duration                       : 1 h 40 min
Bit rate                       : 899 kb/s
Width                          : 1 280 pixels
Height                         : 536 pixels
Display aspect ratio           : 2.40:1
Frame rate mode                : Constant
Frame rate                     : 23.976 (24000/1001) FPS
Color space                    : YUV
Chroma subsampling             : 4:2:0
Bit depth                      : 8 bits
Scan type                      : Progressive
Bits/(Pixel*Frame)             : 0.055
Stream size                    : 646 MiB (82%)
Title                          : GOPISAHI
Writing library                : x264 core 157 r2935 545de2f

Audio #1
Format                         : AAC LC
Duration                       : 1 h 40 min
Bit rate                       : 96.0 kb/s
Channel(s)                     : 2 channels
Channel layout                 : L R
Sampling rate                  : 48.0 kHz
Frame rate                     : 46.875 FPS (1024 SPF)
Compression mode               : Lossy
Delay relative to video        : 10 ms
Stream size                    : 69.3 MiB (9%)
Title                          : GOPISAHI
Language                       : Hindi

Audio #2
Format                         : AAC LC
Duration                       : 1 h 40 min
Bit rate                       : 96.0 kb/s
Channel(s)                     : 2 channels
Channel layout                 : L R
Sampling rate                  : 48.0 kHz
Frame rate                     : 46.875 FPS (1024 SPF)
Compression mode               : Lossy
Delay relative to video        : 2 ms
Stream size                    : 69.3 MiB (9%)
Title                          : GOPISAHI
Language                       : English

Text
Language                       : English

Menu #1
00:00:00.000                   : :Chapter 1
00:02:30.400                   : :Chapter 2
00:10:48.200                   : :Chapter 3
00:14:14.600                   : :Chapter 4
00:20:26.600                   : :Chapter 5
00:25:15.400                   : :Chapter 6
00:29:20.000                   : :Chapter 7
00:34:53.000                   : :Chapter 8
00:41:21.200                   : :Chapter 9
00:45:28.000                   : :Chapter 10
00:48:32.600                   : :Chapter 11
00:54:42.000                   : :Chapter 12
00:58:25.600                   : :Chapter 13
01:05:52.800                   : :Chapter 14
01:10:03.200                   : :Chapter 15
01:15:46.200                   : :Chapter 16
01:21:58.400                   : :Chapter 17
01:28:25.400                   : :Chapter 18
01:31:46.600                   : :Chapter 19
01:37:55.800                   : :Chapter 20

Menu #2
00:00:00.097                   : en:Chapter 01




GDRIVE FILE COPY


Post a Comment

0 Comments