1 Pirates Of The Caribbean The Curse Of The Black Pearl 2003 x264 720p Esub BluRay Dual Audio English Hindi GOPISAHI

 

 Pirates of the Caribbean: The Curse of the Black Pearl (2003)


Blacksmith Will Turner teams up with eccentric pirate "Captain" Jack Sparrow to save his love, the governor's daughter, from Jack's former pirate allies, who are now undead.

Director:

Gore Verbinski

Writers:

Ted Elliott (screen story), Terry Rossio (screen story) |4 more credits »

8.0/10
994,356

Directed byGore Verbinski
Produced byJerry Bruckheimer
Screenplay by
Story by
Based onPirates of the Caribbean
by Walt Disney
Starring
Music by
CinematographyDariusz Wolski
Edited by
Production
companies
Distributed byBuena Vista Pictures Distribution
Release date
Running time
143 minutes[1]
CountryUnited States
LanguageEnglish
Budget$140 million[2]
Box office$654.3 million[2]



Format                         : Matroska
Format version                 : Version 4
File size                      : 1.10 GiB
Duration                       : 2 h 23 min
Overall bit rate               : 1 100 kb/s
Movie name                     : Pirates of the Caribbean: The Curse of the Black Pearl 2003 GOPI SAHI

Video
ID                             : 1
Format                         : AVC
Format/Info                    : Advanced Video Codec
Format profile                 : [email protected]
Format settings                : CABAC / 5 Ref Frames
Format settings, CABAC         : Yes
Format settings, Reference fra : 5 frames
Codec ID                       : V_MPEG4/ISO/AVC
Duration                       : 2 h 23 min
Bit rate                       : 899 kb/s
Width                          : 1 280 pixels
Height                         : 534 pixels
Display aspect ratio           : 2.40:1
Frame rate mode                : Constant
Frame rate                     : 23.976 (24000/1001) FPS
Color space                    : YUV
Chroma subsampling             : 4:2:0
Bit depth                      : 8 bits
Scan type                      : Progressive
Bits/(Pixel*Frame)             : 0.055
Stream size                    : 921 MiB (82%)
Title                          : GOPI SAHI
Writing library                : x264 core 157 r2935 545de2f

Audio #1
ID                             : 2
Format                         : AAC LC
Format/Info                    : Advanced Audio Codec Low Complexity
Codec ID                       : A_AAC-2
Duration                       : 2 h 23 min
Bit rate                       : 96.0 kb/s
Channel(s)                     : 2 channels
Channel layout                 : L R
Sampling rate                  : 48.0 kHz
Frame rate                     : 46.875 FPS (1024 SPF)
Compression mode               : Lossy
Delay relative to video        : 1 s 798 ms
Stream size                    : 98.7 MiB (9%)
Title                          : GOPI SAHI
Language                       : Hindi
Default                        : Yes
Forced                         : No

Audio #2
ID                             : 3
Format                         : AAC LC
Format/Info                    : Advanced Audio Codec Low Complexity
Codec ID                       : A_AAC-2
Duration                       : 2 h 23 min
Bit rate                       : 96.0 kb/s
Channel(s)                     : 2 channels
Channel layout                 : L R
Sampling rate                  : 48.0 kHz
Frame rate                     : 46.875 FPS (1024 SPF)
Compression mode               : Lossy
Delay relative to video        : -21 ms
Stream size                    : 98.7 MiB (9%)
Title                          : GOPI SAHI
Language                       : English
Default                        : No
Forced                         : No

Text
ID                             : 4
Format                         : PGS
Muxing mode                    : zlib
Codec ID                       : S_HDMV/PGS
Codec ID/Info                  : Picture based subtitle format used on BDs/HD-DVDs
Duration                       : 2 h 12 min
Bit rate                       : 24.7 kb/s
Count of elements              : 3848
Stream size                    : 23.4 MiB (2%)
Title                          : GOPI SAHI
Language                       : English
Default                        : Yes
Forced                         : Yes

Menu
00:00:00.000                   : :Chapter 1
00:08:51.281                   : :Chapter 2
00:16:05.548                   : :Chapter 3
00:27:16.343                   : :Chapter 4
00:35:59.324                   : :Chapter 5
00:41:03.127                   : :Chapter 6
00:48:19.939                   : :Chapter 7
00:54:01.280                   : :Chapter 8
01:04:05.759                   : :Chapter 9
01:15:56.802                   : :Chapter 10
01:21:21.418                   : :Chapter 11
01:35:00.153                   : :Chapter 12
01:40:00.745                   : :Chapter 13
01:48:15.614                   : :Chapter 14
02:02:02.190                   : :Chapter 15
02:13:09.773                   : :Chapter 16