2 Pirates Of The Caribbean Dead Man's Chest 2006 x264 720p Esub BluRay Dual Audio English Hindi GOPISAHI

Pirates of the Caribbean: Dead Man's Chest (2006)


Jack Sparrow races to recover the heart of Davy Jones to avoid enslaving his soul to Jones' service, as other friends and foes seek the heart for their own agenda as well.

Director:

Gore Verbinski
7.3/10

Directed byGore Verbinski
Produced byJerry Bruckheimer
Written by
Based on
Starring
Music byHans Zimmer
CinematographyDariusz Wolski
Edited by
Production
companies
Distributed byBuena Vista Pictures
Release date
Running time
151 minutes[1]
CountryUnited States
LanguageEnglish
Budget$225 million[2]
Box office$1.066 billion[2]



Format                         : Matroska
Format version                 : Version 4
File size                      : 1.18 GiB
Duration                       : 2 h 31 min
Overall bit rate               : 1 120 kb/s
Movie name                     : Pirates of the Caribbean: Dead Man's Chest 2006 GOPI SAHI

Video
ID                             : 1
Format                         : AVC
Format/Info                    : Advanced Video Codec
Format profile                 : [email protected]
Format settings                : CABAC / 5 Ref Frames
Format settings, CABAC         : Yes
Format settings, Reference fra : 5 frames
Codec ID                       : V_MPEG4/ISO/AVC
Duration                       : 2 h 30 min
Bit rate                       : 899 kb/s
Width                          : 1 280 pixels
Height                         : 534 pixels
Display aspect ratio           : 2.40:1
Frame rate mode                : Constant
Frame rate                     : 23.976 (24000/1001) FPS
Color space                    : YUV
Chroma subsampling             : 4:2:0
Bit depth                      : 8 bits
Scan type                      : Progressive
Bits/(Pixel*Frame)             : 0.055
Stream size                    : 969 MiB (80%)
Title                          : GOPI SAHI
Writing library                : x264 core 157 r2935 545de2f

Audio #1
ID                             : 2
Format                         : AAC LC
Format/Info                    : Advanced Audio Codec Low Complexity
Codec ID                       : A_AAC-2
Duration                       : 2 h 31 min
Bit rate                       : 96.0 kb/s
Channel(s)                     : 2 channels
Channel layout                 : L R
Sampling rate                  : 48.0 kHz
Frame rate                     : 46.875 FPS (1024 SPF)
Compression mode               : Lossy
Delay relative to video        : 2 s 681 ms
Stream size                    : 104 MiB (9%)
Title                          : GOPI SAHI
Language                       : Hindi
Default                        : Yes
Forced                         : No

Audio #2
ID                             : 3
Format                         : AAC LC
Format/Info                    : Advanced Audio Codec Low Complexity
Codec ID                       : A_AAC-2
Duration                       : 2 h 30 min
Bit rate                       : 96.0 kb/s
Channel(s)                     : 2 channels
Channel layout                 : L R
Sampling rate                  : 48.0 kHz
Frame rate                     : 46.875 FPS (1024 SPF)
Compression mode               : Lossy
Delay relative to video        : -21 ms
Stream size                    : 104 MiB (9%)
Title                          : GOPI SAHI
Language                       : English
Default                        : No
Forced                         : No

Text #1
ID                             : 4
Format                         : PGS
Muxing mode                    : zlib
Codec ID                       : S_HDMV/PGS
Codec ID/Info                  : Picture based subtitle format used on BDs/HD-DVDs
Duration                       : 34 min 10 s
Bit rate                       : 131 b/s
Count of elements              : 6
Stream size                    : 33.0 KiB (0%)
Title                          : GOPI SAHI
Language                       : Hindi
Default                        : Yes
Forced                         : Yes

Text #2
ID                             : 5
Format                         : PGS
Muxing mode                    : zlib
Codec ID                       : S_HDMV/PGS
Codec ID/Info                  : Picture based subtitle format used on BDs/HD-DVDs
Duration                       : 2 h 19 min
Bit rate                       : 35.5 kb/s
Count of elements              : 2444
Stream size                    : 35.5 MiB (3%)
Title                          : GOPI SAHI
Language                       : Hindi
Default                        : No
Forced                         : No

Text #3
ID                             : 6
Format                         : PGS
Muxing mode                    : zlib
Codec ID                       : S_HDMV/PGS
Codec ID/Info                  : Picture based subtitle format used on BDs/HD-DVDs
Duration                       : 2 h 29 min
Bit rate                       : 18.7 kb/s
Count of elements              : 2970
Stream size                    : 20.0 MiB (2%)
Title                          : GOPI SAHI
Language                       : English
Default                        : No
Forced                         : No

Text #4
ID                             : 7
Format                         : PGS
Muxing mode                    : zlib
Codec ID                       : S_HDMV/PGS
Codec ID/Info                  : Picture based subtitle format used on BDs/HD-DVDs
Duration                       : 2 h 30 min
Bit rate                       : 45.7 kb/s
Count of elements              : 4608
Stream size                    : 49.0 MiB (4%)
Title                          : GOPI SAHI
Language                       : English
Default                        : No
Forced                         : No

Menu
00:00:00.000                   : :Chapter 1
00:04:18.925                   : :Chapter 2
00:09:53.134                   : :Chapter 3
00:12:13.441                   : :Chapter 4
00:19:09.065                   : :Chapter 5
00:23:53.474                   : :Chapter 6
00:30:15.480                   : :Chapter 7
00:35:29.419                   : :Chapter 8
00:40:32.931                   : :Chapter 9
00:46:28.035                   : :Chapter 10
00:50:25.564                   : :Chapter 11
00:56:18.917                   : :Chapter 12
00:59:52.380                   : :Chapter 13
01:05:45.233                   : :Chapter 14
01:11:55.853                   : :Chapter 15
01:17:04.453                   : :Chapter 16
01:22:10.300                   : :Chapter 17
01:30:36.806                   : :Chapter 18
01:34:38.173                   : :Chapter 19
01:39:21.831                   : :Chapter 20
01:44:52.411                   : :Chapter 21
01:49:14.715                   : :Chapter 22
01:54:55.806                   : :Chapter 23
01:59:36.044                   : :Chapter 24
02:04:59.909                   : :Chapter 25
02:10:27.236                   : :Chapter 26
02:16:20.631                   : :Chapter 27
02:21:05.123                   : :Chapter 28