3 The Fast And The Furious - Tokyo Drift 2006 x264 720p Esub BluRay Dual Audio English Hindi Sadeemrdp GOPI SAHI

The Fast and the Furious: Tokyo Drift (2006)

 
A teenager becomes a major competitor in the world of drift racing after moving in with his father in Tokyo to avoid a jail sentence in America.

Director:

Justin Lin

Writer:

Chris Morgan
6.0/10


Directed byJustin Lin
Produced byNeal H. Moritz
Written byChris Morgan
Based onThe Fast and the Furious
by Gary Scott Thompson
Starring
Music byBrian Tyler
CinematographyStephen F. Windon
Edited by
Production
company
Distributed byUniversal Pictures[1]
Release date
  • June 16, 2006
(United States)
Running time
104 minutes
Country
Language
  • English
  • Japanese
Budget$85 million[4]
Box office$159 million[5]






Format                         : Matroska
Format version                 : Version 4
File size                      : 828 MiB
Duration                       : 1 h 44 min
Overall bit rate               : 1 110 kb/s
Movie name                     : 3 The Fast and the Furious: Tokyo Drift 2006 GOPI SAHI
Encoded date                   : UTC 2020-05-30 18:50:44

Video
ID                             : 1
Format                         : AVC
Format/Info                    : Advanced Video Codec
Format profile                 : [email protected]
Format settings                : CABAC / 5 Ref Frames
Format settings, CABAC         : Yes
Format settings, Reference fra : 5 frames
Codec ID                       : V_MPEG4/ISO/AVC
Duration                       : 1 h 44 min
Bit rate                       : 899 kb/s
Width                          : 1 280 pixels
Height                         : 544 pixels
Display aspect ratio           : 2.35:1
Frame rate mode                : Constant
Frame rate                     : 23.976 (24000/1001) FPS
Color space                    : YUV
Chroma subsampling             : 4:2:0
Bit depth                      : 8 bits
Scan type                      : Progressive
Bits/(Pixel*Frame)             : 0.054
Stream size                    : 670 MiB (81%)
Title                          : GOPI SAHI
Writing library                : x264 core 157 r2935 545de2f

Audio #1
ID                             : 2
Format                         : AAC LC
Format/Info                    : Advanced Audio Codec Low Complexity
Codec ID                       : A_AAC-2
Duration                       : 1 h 44 min
Bit rate                       : 96.0 kb/s
Channel(s)                     : 2 channels
Channel layout                 : L R
Sampling rate                  : 48.0 kHz
Frame rate                     : 46.875 FPS (1024 SPF)
Compression mode               : Lossy
Delay relative to video        : 355 ms
Stream size                    : 71.9 MiB (9%)
Title                          : GOPI SAHI
Language                       : Hindi
Default                        : Yes
Forced                         : No

Audio #2
ID                             : 3
Format                         : AAC LC
Format/Info                    : Advanced Audio Codec Low Complexity
Codec ID                       : A_AAC-2
Duration                       : 1 h 44 min
Bit rate                       : 96.0 kb/s
Channel(s)                     : 2 channels
Channel layout                 : L R
Sampling rate                  : 48.0 kHz
Frame rate                     : 46.875 FPS (1024 SPF)
Compression mode               : Lossy
Delay relative to video        : -21 ms
Stream size                    : 71.9 MiB (9%)
Title                          : GOPI SAHI
Language                       : English
Default                        : No
Forced                         : No

Text #1
ID                             : 4
Format                         : PGS
Muxing mode                    : zlib
Codec ID                       : S_HDMV/PGS
Codec ID/Info                  : Picture based subtitle format used on BDs/HD-DVDs
Duration                       : 1 h 34 min
Bit rate                       : 23.2 kb/s
Count of elements              : 1358
Stream size                    : 15.7 MiB (2%)
Title                          : GOPI SAHI
Language                       : Hindi
Default                        : Yes
Forced                         : Yes

Text #2
ID                             : 5
Format                         : PGS
Muxing mode                    : zlib
Codec ID                       : S_HDMV/PGS
Codec ID/Info                  : Picture based subtitle format used on BDs/HD-DVDs
Duration                       : 1 h 25 min
Bit rate                       : 1 919 b/s
Count of elements              : 102
Stream size                    : 1.18 MiB (0%)
Title                          : GOPI SAHI
Language                       : Hindi
Default                        : No
Forced                         : No

Text #3
ID                             : 6
Format                         : PGS
Muxing mode                    : zlib
Codec ID                       : S_HDMV/PGS
Codec ID/Info                  : Picture based subtitle format used on BDs/HD-DVDs
Duration                       : 1 h 34 min
Bit rate                       : 19.5 kb/s
Count of elements              : 1393
Stream size                    : 13.2 MiB (2%)
Title                          : GOPI SAHI
Language                       : English
Default                        : No
Forced                         : No

Text #4
ID                             : 7
Format                         : PGS
Muxing mode                    : zlib
Codec ID                       : S_HDMV/PGS
Codec ID/Info                  : Picture based subtitle format used on BDs/HD-DVDs
Duration                       : 1 h 11 min
Bit rate                       : 1 328 b/s
Count of elements              : 88
Stream size                    : 699 KiB (0%)
Title                          : GOPI SAHI
Language                       : English
Default                        : No
Forced                         : No

Menu
00:00:00.000                   : :Chapter 1
00:03:04.518                   : :Chapter 2
00:09:43.500                   : :Chapter 3
00:12:10.688                   : :Chapter 4
00:16:15.558                   : :Chapter 5
00:20:16.841                   : :Chapter 6
00:26:36.470                   : :Chapter 7
00:32:56.975                   : :Chapter 8
00:41:14.305                   : :Chapter 9
00:46:34.834                   : :Chapter 10
00:52:55.255                   : :Chapter 11
00:58:20.122                   : :Chapter 12
01:01:46.244                   : :Chapter 13
01:05:50.655                   : :Chapter 14
01:08:56.090                   : :Chapter 15
01:16:14.612                   : :Chapter 16
01:20:31.410                   : :Chapter 17
01:26:53.250                   : :Chapter 18
01:34:59.944                   : :Chapter 19
01:37:33.848                   : :Chapter 20