6 Fast & Furious 6 2013 Extended Cut x264 720p Esub BluRay Dual Audio English Hindi Sadeemrdp GOPI SAHI




Fast & Furious 6 (2013)

Furious 6 (original title)
 
Hobbs has Dominic and Brian reassemble their crew to take down a team of mercenaries: Dominic unexpectedly gets sidetracked with facing his presumed deceased girlfriend, Letty.

Director:

Justin Lin

Writers:

Chris Morgan, Gary Scott Thompson (characters)

7.1/10


Directed byJustin Lin
Produced by
Written byChris Morgan
Based onCharacters
by Gary Scott Thompson
Starring
Music byLucas Vidal
CinematographyStephen F. Windon
Edited by
Production
companies
Distributed byUniversal Pictures
Release date
Running time
130 minutes[1]
CountryUnited States
LanguageEnglish
Budget$160–260 million[2][3]
Box office$788.7 million[2]



Format                         : Matroska
Format version                 : Version 4
File size                      : 1.01 GiB
Duration                       : 2 h 11 min
Overall bit rate               : 1 104 kb/s
Movie name                     : Fast & Furious 6 2013 Extended GOPI SAHI
Encoded date                   : UTC 2020-05-30 19:47:10

Video
ID                             : 1
Format                         : AVC
Format/Info                    : Advanced Video Codec
Format profile                 : [email protected]
Format settings                : CABAC / 5 Ref Frames
Format settings, CABAC         : Yes
Format settings, Reference fra : 5 frames
Codec ID                       : V_MPEG4/ISO/AVC
Duration                       : 2 h 11 min
Bit rate                       : 899 kb/s
Width                          : 1 280 pixels
Height                         : 544 pixels
Display aspect ratio           : 2.35:1
Frame rate mode                : Constant
Frame rate                     : 23.976 (24000/1001) FPS
Color space                    : YUV
Chroma subsampling             : 4:2:0
Bit depth                      : 8 bits
Scan type                      : Progressive
Bits/(Pixel*Frame)             : 0.054
Stream size                    : 842 MiB (81%)
Title                          : GOPI SAHI
Writing library                : x264 core 157 r2935 545de2f

Audio #1
ID                             : 2
Format                         : AAC LC
Format/Info                    : Advanced Audio Codec Low Complexity
Codec ID                       : A_AAC-2
Duration                       : 2 h 11 min
Bit rate                       : 96.0 kb/s
Channel(s)                     : 2 channels
Channel layout                 : L R
Sampling rate                  : 48.0 kHz
Frame rate                     : 46.875 FPS (1024 SPF)
Compression mode               : Lossy
Delay relative to video        : -21 ms
Stream size                    : 90.4 MiB (9%)
Title                          : GOPI SAHI
Language                       : Hindi
Default                        : Yes
Forced                         : No

Audio #2
ID                             : 3
Format                         : AAC LC
Format/Info                    : Advanced Audio Codec Low Complexity
Codec ID                       : A_AAC-2
Duration                       : 2 h 11 min
Bit rate                       : 96.0 kb/s
Channel(s)                     : 2 channels
Channel layout                 : L R
Sampling rate                  : 48.0 kHz
Frame rate                     : 46.875 FPS (1024 SPF)
Compression mode               : Lossy
Delay relative to video        : -21 ms
Stream size                    : 90.4 MiB (9%)
Title                          : GOPI SAHI
Language                       : English
Default                        : No
Forced                         : No

Text
ID                             : 4
Format                         : PGS
Muxing mode                    : zlib
Codec ID                       : S_HDMV/PGS
Codec ID/Info                  : Picture based subtitle format used on BDs/HD-DVDs
Duration                       : 2 h 3 min
Bit rate                       : 31.6 kb/s
Count of elements              : 2940
Stream size                    : 28.0 MiB (3%)
Title                          : GOPI SAHI
Language                       : English
Default                        : Yes
Forced                         : Yes

Menu
00:00:00.000                   : :Chapter 1
00:04:21.011                   : :Chapter 2
00:10:19.119                   : :Chapter 3
00:15:35.268                   : :Chapter 4
00:19:18.574                   : :Chapter 5
00:24:32.763                   : :Chapter 6
00:30:23.405                   : :Chapter 7
00:36:28.478                   : :Chapter 8
00:44:01.305                   : :Chapter 9
00:50:50.256                   : :Chapter 10
00:56:54.328                   : :Chapter 11
01:04:54.224                   : :Chapter 12
01:10:14.293                   : :Chapter 13
01:19:13.457                   : :Chapter 14
01:25:41.178                   : :Chapter 15
01:34:54.022                   : :Chapter 16
01:41:48.603                   : :Chapter 17
01:48:31.922                   : :Chapter 18
01:57:48.812                   : :Chapter 19
02:03:04.419                   : :Chapter 20