9 Fast & Furious-Hobbs & Shaw 2019 x264 720p Esub BluRay Dual Audio English Hindi GOPISAHI

Fast & Furious Presents: Hobbs & Shaw (2019)


Lawman Luke Hobbs (Dwayne "The Rock" Johnson) and outcast Deckard Shaw (Jason Statham) form an unlikely alliance when a cyber-genetically enhanced villain threatens the future of humanity.

Director:

David Leitch

Writers:

Chris Morgan (screenplay by), Drew Pearce (screenplay by) |2 more credits »

Directed byDavid Leitch
Produced by
Screenplay by
Story byChris Morgan
Starring
Music byTyler Bates
CinematographyJonathan Sela
Edited by
Production
company
Distributed byUniversal Pictures
Release date
Running time
137 minutes[2]
CountryUnited States
LanguageEnglish
Budget$200 million[2]
Box office$760.6 million[2][3]

Format                         : Matroska
Format version                 : Version 4
File size                      : 1.04 GiB
Duration                       : 2 h 16 min
Overall bit rate               : 1 089 kb/s
Movie name                     : 9 Fast & Furious: Hobbs & Shaw 2019 GOPI SAHI

Video
ID                             : 1
Format                         : AVC
Format/Info                    : Advanced Video Codec
Format profile                 : [email protected]
Format settings                : CABAC / 12 Ref Frames
Format settings, CABAC         : Yes
Format settings, Reference fra : 12 frames
Codec ID                       : V_MPEG4/ISO/AVC
Duration                       : 2 h 15 min
Bit rate                       : 899 kb/s
Width                          : 1 280 pixels
Height                         : 534 pixels
Display aspect ratio           : 2.40:1
Frame rate mode                : Constant
Frame rate                     : 23.976 (24000/1001) FPS
Color space                    : YUV
Chroma subsampling             : 4:2:0
Bit depth                      : 8 bits
Scan type                      : Progressive
Bits/(Pixel*Frame)             : 0.055
Stream size                    : 874 MiB (82%)
Title                          : GOPI SAHI
Writing library                : x264 core 157 r2935 545de2f

Audio #1
ID                             : 2
Format                         : AAC LC
Format/Info                    : Advanced Audio Codec Low Complexity
Codec ID                       : A_AAC-2
Duration                       : 2 h 15 min
Bit rate                       : 96.0 kb/s
Channel(s)                     : 2 channels
Channel layout                 : L R
Sampling rate                  : 48.0 kHz
Frame rate                     : 46.875 FPS (1024 SPF)
Compression mode               : Lossy
Delay relative to video        : -63 ms
Stream size                    : 93.8 MiB (9%)
Title                          : GOPI SAHI
Language                       : Hindi
Default                        : Yes
Forced                         : No

Audio #2
ID                             : 3
Format                         : AAC LC
Format/Info                    : Advanced Audio Codec Low Complexity
Codec ID                       : A_AAC-2
Duration                       : 2 h 16 min
Bit rate                       : 96.0 kb/s
Channel(s)                     : 2 channels
Channel layout                 : L R
Sampling rate                  : 48.0 kHz
Frame rate                     : 46.875 FPS (1024 SPF)
Compression mode               : Lossy
Delay relative to video        : 937 ms
Stream size                    : 94.3 MiB (9%)
Title                          : GOPI SAHI
Language                       : English
Default                        : No
Forced                         : No

Text
ID                             : 4
Format                         : UTF-8
Codec ID                       : S_TEXT/UTF8
Codec ID/Info                  : UTF-8 Plain Text
Duration                       : 2 h 16 min
Bit rate                       : 75 b/s
Count of elements              : 2188
Stream size                    : 75.0 KiB (0%)
Title                          : GOPI SAHI
Language                       : English
Default                        : Yes
Forced                         : No