Bareilly Ki Barfi 2017 x264 720p Esub BluRay Hindi Sadeemrdp GOPI SAHI


Bareilly Ki Barfi (2017)

Set in the small-town of Bareilly, Bitti is a free-spirited young girl who lives life on her own terms and refuses to be pressured into getting married. Her life takes a shift when she meets Chirag Dubey and Pritam Vidrohi.

7.5/10
16,873

Directed byAshwiny Iyer Tiwari
Produced byVineet Jain
Renu Ravi Chopra
Written byNitesh Tiwari
Shreyas Jain
Based onThe Ingredients of Love
by Nicolas Barreau
StarringAyushmann Khurrana
Rajkummar Rao
Kriti Sanon
Narrated byJaved Akhtar
Music byTanishk Bagchi
Arko Pravo Mukherjee
Samira Koppikar
Vayu
Sameer Uddin
CinematographyGavemic U Ary
Edited byChandrashekhar Prajapati
Production
company
Junglee Pictures
B R Studios
Distributed byAA Films
Release date
Running time
122 minutes
CountryIndia
LanguageHindi
Budget20 crore [3]
Box officeest. 60 crore[4]

Format                         : Matroska
Format version                 : Version 4
File size                      : 845 MiB
Duration                       : 1 h 55 min
Overall bit rate               : 1 021 kb/s
Movie name                     : Bareilly Ki Barfi 2017 GOPI SAHI
Encoded date                   : UTC 2020-05-21 16:55:16
Writing application            : mkvmerge v46.0.0 ('No Deeper Escape') 32-bit
Writing library                : libebml v1.3.10 + libmatroska v1.5.2

Video
ID                             : 1
Format                         : AVC
Format/Info                    : Advanced Video Codec
Format profile                 : [email protected]
Format settings                : CABAC / 5 Ref Frames
Format settings, CABAC         : Yes
Format settings, Reference fra : 5 frames
Codec ID                       : V_MPEG4/ISO/AVC
Duration                       : 1 h 55 min
Bit rate                       : 899 kb/s
Width                          : 1 280 pixels
Height                         : 534 pixels
Display aspect ratio           : 2.40:1
Frame rate mode                : Constant
Frame rate                     : 24.000 FPS
Color space                    : YUV
Chroma subsampling             : 4:2:0
Bit depth                      : 8 bits
Scan type                      : Progressive
Bits/(Pixel*Frame)             : 0.055
Stream size                    : 743 MiB (88%)
Title                          : GOPI SAHI
Writing library                : x264 core 157 r2935 545de2f

Audio
ID                             : 2
Format                         : AAC LC
Format/Info                    : Advanced Audio Codec Low Complexity
Codec ID                       : A_AAC-2
Duration                       : 1 h 55 min
Bit rate                       : 96.0 kb/s
Channel(s)                     : 2 channels
Channel layout                 : L R
Sampling rate                  : 48.0 kHz
Frame rate                     : 46.875 FPS (1024 SPF)
Compression mode               : Lossy
Delay relative to video        : -21 ms
Stream size                    : 79.0 MiB (9%)
Title                          : GOPI SAHI
Language                       : Hindi
Default                        : Yes
Forced                         : No

Text
ID                             : 3
Format                         : PGS
Muxing mode                    : zlib
Codec ID                       : S_HDMV/PGS
Codec ID/Info                  : Picture based subtitle format used on BDs/HD-DVDs
Duration                       : 1 h 50 min
Bit rate                       : 40.6 kb/s
Count of elements              : 3463
Stream size                    : 32.2 MiB (4%)
Title                          : GOPI SAHI
Language                       : English
Default                        : Yes
Forced                         : No

Menu
00:00:00.000                   : :Chapter 1
00:02:05.500                   : :Chapter 2
00:07:18.042                   : :Chapter 3
00:13:17.083                   : :Chapter 4
00:17:43.375                   : :Chapter 5
00:23:29.292                   : :Chapter 6
00:32:56.208                   : :Chapter 7
00:42:52.083                   : :Chapter 8
00:48:28.458                   : :Chapter 9
00:54:19.042                   : :Chapter 10
00:59:45.125                   : :Chapter 11
01:11:44.250                   : :Chapter 12
01:16:23.375                   : :Chapter 13
01:20:41.667                   : :Chapter 14
01:35:46.083                   : :Chapter 15
01:41:16.000                   : :Chapter 16






Post a Comment

0 Comments