Betaal 2020 x264 NetFlix Hindi S01 Complete E01 - 04 720p WEBRip x264 AAC Eng Sub

A remote village becomes the arena of a breathless battle when an undead East India Company officer and his battalion of zombie redcoats attack a squad of modern-day soldiers.
 
8.7/10
91


Format                         : Matroska
Format version                 : Version 4
File size                      : 349 MiB
Duration                       : 45 min 46 s
Overall bit rate               : 1 065 kb/s


Video
ID                             : 1
Format                         : AVC
Format/Info                    : Advanced Video Codec
Format profile                 : [email protected]
Format settings                : CABAC / 4 Ref Frames
Format settings, CABAC         : Yes
Format settings, Reference fra : 4 frames
Codec ID                       : V_MPEG4/ISO/AVC
Duration                       : 45 min 44 s
Bit rate                       : 1 030 kb/s
Width                          : 1 280 pixels
Height                         : 640 pixels
Display aspect ratio           : 2.000
Frame rate mode                : Constant
Frame rate                     : 24.000 FPS
Color space                    : YUV
Chroma subsampling             : 4:2:0
Bit depth                      : 8 bits
Scan type                      : Progressive
Bits/(Pixel*Frame)             : 0.052
Stream size                    : 323 MiB (93%)
Writing library                : x264 core 157 r2969 d4099dd

Audio
ID                             : 2
Format                         : AAC LC
Format/Info                    : Advanced Audio Codec Low Complexity
Codec ID                       : A_AAC-2
Duration                       : 45 min 46 s
Bit rate                       : 76.4 kb/s
Channel(s)                     : 2 channels
Channel layout                 : L R
Sampling rate                  : 44.1 kHz
Frame rate                     : 43.066 FPS (1024 SPF)
Compression mode               : Lossy
Stream size                    : 25.0 MiB (7%)
Language                       : Hindi
Default                        : Yes
Forced                         : No

Text
ID                             : 3
Format                         : UTF-8
Codec ID                       : S_TEXT/UTF8
Codec ID/Info                  : UTF-8 Plain Text
Duration                       : 41 min 32 s
Bit rate                       : 58 b/s
Count of elements              : 551
Stream size                    : 17.8 KiB (0%)
Title                          : English
Language                       : English
Default                        : No
Forced                         : No









ZIPER LINKS