Boy 2019 x264 720p Esub HD Hindi Sadeemrdp GOPI SAHI

Boy (2019)

A boy's story during the final days of his high school.

Director:

Amar Viswaraj

6.8/10
190
 


Format                         : Matroska
Format version                 : Version 4
File size                      : 927 MiB
Duration                       : 2 h 9 min
Overall bit rate               : 998 kb/s
Movie name                     : Boy 2019 GOPI SAHI
Encoded date                   : UTC 2020-05-19 00:16:51
Writing application            : mkvmerge v46.0.0 ('No Deeper Escape') 32-bit
Writing library                : libebml v1.3.10 + libmatroska v1.5.2

Video
ID                             : 1
Format                         : AVC
Format/Info                    : Advanced Video Codec
Format profile                 : [email protected]
Format settings                : CABAC / 5 Ref Frames
Format settings, CABAC         : Yes
Format settings, Reference fra : 5 frames
Codec ID                       : V_MPEG4/ISO/AVC
Duration                       : 2 h 9 min
Bit rate                       : 899 kb/s
Width                          : 1 280 pixels
Height                         : 526 pixels
Display aspect ratio           : 2.40:1
Frame rate mode                : Constant
Frame rate                     : 24.000 FPS
Color space                    : YUV
Chroma subsampling             : 4:2:0
Bit depth                      : 8 bits
Scan type                      : Progressive
Bits/(Pixel*Frame)             : 0.056
Stream size                    : 835 MiB (90%)
Title                          : GOPI SAHI
Writing library                : x264 core 157 r2935 545de2f

Audio
ID                             : 2
Format                         : AAC LC
Format/Info                    : Advanced Audio Codec Low Complexity
Codec ID                       : A_AAC-2
Duration                       : 2 h 9 min
Bit rate                       : 96.0 kb/s
Channel(s)                     : 2 channels
Channel layout                 : L R
Sampling rate                  : 48.0 kHz
Frame rate                     : 46.875 FPS (1024 SPF)
Compression mode               : Lossy
Delay relative to video        : -21 ms
Stream size                    : 89.7 MiB (10%)
Title                          : GOPI SAHI
Language                       : Hindi
Default                        : Yes
Forced                         : No

Text
ID                             : 3
Format                         : UTF-8
Codec ID                       : S_TEXT/UTF8
Codec ID/Info                  : UTF-8 Plain Text
Duration                       : 2 h 4 min
Bit rate                       : 43 b/s
Count of elements              : 1476
Stream size                    : 39.7 KiB (0%)
Title                          : GOPI SAHI
Language                       : English
Default                        : Yes
Forced                         : No

Menu
00:00:00.000                   : :Film Certification
00:00:06.000                   : :Media Partners
00:00:11.000                   : :Thanks to
00:00:17.000                   : :Studio Logo
00:00:23.000                   : :Title Sequence
00:00:28.000                   : :Opening Credits
00:00:40.000                   : :Scene 7
00:10:40.000                   : :Scene 8
00:21:40.000                   : :Scene 9
00:34:09.000                   : :Scene 10
00:41:49.000                   : :Scene 11
00:51:25.000                   : :Scene 12
01:03:20.000                   : :Scene 13
01:10:40.000                   : :Scene 14
01:20:21.000                   : :Scene 15
01:26:58.000                   : :Scene 16
01:39:37.000                   : :Scene 17
01:51:52.000                   : :Scene 18
02:08:41.000                   : :End Credits






Post a Comment

0 Comments