Buddies In India 2017 x264 720p Esub BluRay Dual Audio English Hindi Telugu Tamil Sadeemrdp GOPI SAHI

Buddies in India (2017)

Unrated | |Action, Comedy |27 January 2017 (USA)
In an effort to save his house, a man accompanies the son of a recently deceased CEO to India to recover his will.

Director:

Baoqiang Wang
3.7/10


Chinese大闹天竺
Directed byWang Baoqiang
StarringWang Baoqiang
Bai Ke
Vikramjeet Virk
Yue Yunpeng
Liu Yan
Music bySunny Subramanian
Production
companies
Lekaihua Entertainment (Wuxi)
Huoerguosi Enlight Media
浙江诸暨升维传媒有限公司
Beijing Hairun Pictures
Tianjin Maoyan Media
YiMa Shidai Media (Beijing)
Shanghai Mengmi Media
Beijing Wanhe Tianyi Media[1]
Distributed byTianjin Maoyan Media
Beijing Enlight Pictures
Huaxia Film Distribution[1]
Release date
  • 28 January 2017 (China)
Running time
99 minutes
CountryChina[1][2]
LanguageMandarin
Box officeUS$107.9 million[3]



Format                         : Matroska
Format version                 : Version 4
File size                      : 813 MiB
Duration                       : 1 h 35 min
Overall bit rate               : 1 191 kb/s
Movie name                     : Buddies In India 2017 GOPI SAHI
Encoded date                   : UTC 2020-05-14 20:05:00
Writing application            : mkvmerge v46.0.0 ('No Deeper Escape') 32-bit
Writing library                : libebml v1.3.10 + libmatroska v1.5.2

Video
ID                             : 1
Format                         : AVC
Format/Info                    : Advanced Video Codec
Format profile                 : [email protected]
Format settings                : CABAC / 5 Ref Frames
Format settings, CABAC         : Yes
Format settings, Reference fra : 5 frames
Codec ID                       : V_MPEG4/ISO/AVC
Duration                       : 1 h 35 min
Bit rate                       : 899 kb/s
Width                          : 1 280 pixels
Height                         : 540 pixels
Display aspect ratio           : 2.40:1
Frame rate mode                : Constant
Frame rate                     : 25.000 FPS
Color space                    : YUV
Chroma subsampling             : 4:2:0
Bit depth                      : 8 bits
Scan type                      : Progressive
Bits/(Pixel*Frame)             : 0.052
Stream size                    : 613 MiB (75%)
Title                          : GOPI SAHI
Writing library                : x264 core 157 r2935 545de2f

Audio #1
ID                             : 2
Format                         : AAC LC
Format/Info                    : Advanced Audio Codec Low Complexity
Codec ID                       : A_AAC-2
Duration                       : 1 h 35 min
Bit rate                       : 96.0 kb/s
Channel(s)                     : 2 channels
Channel layout                 : L R
Sampling rate                  : 48.0 kHz
Frame rate                     : 46.875 FPS (1024 SPF)
Compression mode               : Lossy
Delay relative to video        : -21 ms
Stream size                    : 65.7 MiB (8%)
Title                          : GOPI SAHI
Language                       : Hindi
Default                        : Yes
Forced                         : No

Audio #2
ID                             : 3
Format                         : AAC LC
Format/Info                    : Advanced Audio Codec Low Complexity
Codec ID                       : A_AAC-2
Duration                       : 1 h 35 min
Bit rate                       : 96.0 kb/s
Channel(s)                     : 2 channels
Channel layout                 : L R
Sampling rate                  : 48.0 kHz
Frame rate                     : 46.875 FPS (1024 SPF)
Compression mode               : Lossy
Delay relative to video        : -21 ms
Stream size                    : 65.7 MiB (8%)
Title                          : GOPI SAHI
Language                       : Tamil
Default                        : No
Forced                         : No

Audio #3
ID                             : 4
Format                         : AAC LC
Format/Info                    : Advanced Audio Codec Low Complexity
Codec ID                       : A_AAC-2
Duration                       : 1 h 35 min
Bit rate                       : 96.0 kb/s
Channel(s)                     : 2 channels
Channel layout                 : L R
Sampling rate                  : 48.0 kHz
Frame rate                     : 46.875 FPS (1024 SPF)
Compression mode               : Lossy
Delay relative to video        : -21 ms
Stream size                    : 65.7 MiB (8%)
Title                          : GOPI SAHI
Language                       : Telugu
Default                        : No
Forced                         : No

















Post a Comment

0 Comments