Clash of the Titans 2010 x264 720p Esub BluRay Dual Audio English Hindi Telugu Tamil GOPI SAHI

Clash of the Titans (2010)

Perseus demigod, son of Zeus, battles the minions of the underworld to stop them from conquering heaven and earth.

Director:

Louis Leterrier

Writers:

Travis Beacham (screenplay), Phil Hay (screenplay) |2 more credits »

5.8/10
264,329

Directed byLouis Leterrier
Produced by
Screenplay by
Based onClash of the Titans
by Beverley Cross
Starring
Music byRamin Djawadi
CinematographyPeter Menzies Jr.
Edited by
Production
company
Distributed byWarner Bros. Pictures
Release date
  • April 2, 2010 (United States)
Running time
108 minutes
CountryUnited States
Australia
LanguageEnglish
Budget$125 million[1]
Box office$493.2 million[1]


Clash of the Titans 2010 x264 720p Esub BluRay Dual Audio English Hindi Telugu Tamil GOPI SAHI

Format                                   : Matroska
Format version                           : Version 4 / Version 2
File size                                : 978 MiB
Duration                                 : 1 h 46 min
Overall bit rate                         : 1 289 kb/s
Movie name                               : Clash of the Titans 2010 GOPI SAHI

Video
ID                                       : 1
Format                                   : AVC
Format/Info                              : Advanced Video Codec
Format profile                           : [email protected]
Format settings                          : CABAC / 5 Ref Frames
Format settings, CABAC                   : Yes
Format settings, ReFrames                : 5 frames
Codec ID                                 : V_MPEG4/ISO/AVC
Duration                                 : 1 h 46 min
Bit rate                                 : 899 kb/s
Width                                    : 1 280 pixels
Height                                   : 534 pixels
Display aspect ratio                     : 2.40:1
Frame rate mode                          : Constant
Frame rate                               : 23.976 (24000/1001) FPS
Color space                              : YUV
Chroma subsampling                       : 4:2:0
Bit depth                                : 8 bits
Scan type                                : Progressive
Bits/(Pixel*Frame)                       : 0.055
Stream size                              : 682 MiB (70%)
Title                                    : GOPI SAHI
Writing library                          : x264 core 148

Audio #1
ID                                       : 2
Format                                   : AAC
Format/Info                              : Advanced Audio Codec
Format profile                           : LC
Codec ID                                 : A_AAC-2
Duration                                 : 1 h 46 min
Bit rate                                 : 96.0 kb/s
Channel(s)                               : 2 channels
Channel positions                        : Front: L R
Sampling rate                            : 48.0 kHz
Frame rate                               : 46.875 FPS (1024 SPF)
Compression mode                         : Lossy
Delay relative to video                  : -21 ms
Stream size                              : 73.2 MiB (7%)
Title                                    : GOPI SAHI
Language                                 : Hindi
Default                                  : Yes
Forced                                   : No

Audio #2
ID                                       : 3
Format                                   : AAC
Format/Info                              : Advanced Audio Codec
Format profile                           : LC
Codec ID                                 : A_AAC-2
Duration                                 : 1 h 46 min
Bit rate                                 : 96.0 kb/s
Channel(s)                               : 2 channels
Channel positions                        : Front: L R
Sampling rate                            : 48.0 kHz
Frame rate                               : 46.875 FPS (1024 SPF)
Compression mode                         : Lossy
Delay relative to video                  : -21 ms
Stream size                              : 73.2 MiB (7%)
Title                                    : GOPI SAHI
Language                                 : English
Default                                  : No
Forced                                   : No

Audio #3
ID                                       : 4
Format                                   : AAC
Format/Info                              : Advanced Audio Codec
Format profile                           : LC
Codec ID                                 : A_AAC-2
Duration                                 : 1 h 46 min
Bit rate                                 : 96.0 kb/s
Channel(s)                               : 2 channels
Channel positions                        : Front: L R
Sampling rate                            : 48.0 kHz
Frame rate                               : 46.875 FPS (1024 SPF)
Compression mode                         : Lossy
Delay relative to video                  : -21 ms
Stream size                              : 73.2 MiB (7%)
Title                                    : GOPI SAHI
Language                                 : Tamil
Default                                  : No
Forced                                   : No

Audio #4
ID                                       : 5
Format                                   : AAC
Format/Info                              : Advanced Audio Codec
Format profile                           : LC
Codec ID                                 : A_AAC-2
Duration                                 : 1 h 46 min
Bit rate                                 : 96.0 kb/s
Channel(s)                               : 2 channels
Channel positions                        : Front: L R
Sampling rate                            : 48.0 kHz
Frame rate                               : 46.875 FPS (1024 SPF)
Compression mode                         : Lossy
Delay relative to video                  : -21 ms
Stream size                              : 73.2 MiB (7%)
Title                                    : GOPI SAHI
Language                                 : Telugu
Default                                  : No
Forced                                   : No






Post a Comment

0 Comments