Crime Story 1993 x264 720p Esub BluRay Dual Audio English Hindi Sadeemrdp @ GOPI SAHI

Crime Story (1993)
 
Jung on zo (original title)
A Special Agent is assigned to protect a wealthy business magnate. However, when the businessman is kidnapped in a daring ambush, he teams up with a seasoned detective to crack the case. But soon he discovers the case isn't that simple.

Directors:

Kirk Wong, Jackie Chan (uncredited)

Writers:

Tin Nam Chun (screenplay) (as Chun Tin Nam), Man Keung Chan (screenplay) (as Chan Man Keung) |3 more credits »

6.8/10


Traditional重案組
Simplified重案组
MandarinZhōng Àn Zǔ
CantoneseCung5 On3 Zo2
Directed byKirk Wong
Jackie Chan (action)
Bruce Law (action)
Produced byLeonard Ho
Chua Lam
Written byTeddy Chan
Cheung Chi-sing
StarringJackie Chan
Kent Cheng
Law Kar-ying
Blackie Ko
Ken Lo
Music byMark Lui
James Wong
CinematographyArny Lam
Arthur Wong
Edited byPeter Cheung
Distributed byGolden Harvest
Media Asia
Release date
  • 24 June 1993
Running time
107 minutes
CountryHong Kong
LanguageCantonese
Box officeHK$27,439,331




Crime Story 1993 x264 720p Esub BluRay Dual Audio English Hindi Sadeemrdp @ GOPI SAHI

Format                         : Matroska
Format version                 : Version 4
File size                      : 839 MiB
Duration                       : 1 h 47 min
Overall bit rate               : 1 094 kb/s
Movie name                     : Crime Story 1993 GOPI SAHI
Encoded date                   : UTC 2020-05-09 17:30:58
Writing application            : mkvmerge v46.0.0 ('No Deeper Escape') 32-bit
Writing library                : libebml v1.3.10 + libmatroska v1.5.2

Video
ID                             : 1
Format                         : AVC
Format/Info                    : Advanced Video Codec
Format profile                 : [email protected]
Format settings                : CABAC / 5 Ref Frames
Format settings, CABAC         : Yes
Format settings, Reference fra : 5 frames
Codec ID                       : V_MPEG4/ISO/AVC
Duration                       : 1 h 47 min
Bit rate                       : 899 kb/s
Width                          : 1 280 pixels
Height                         : 682 pixels
Display aspect ratio           : 1.85:1
Frame rate mode                : Constant
Frame rate                     : 24.000 FPS
Color space                    : YUV
Chroma subsampling             : 4:2:0
Bit depth                      : 8 bits
Scan type                      : Progressive
Bits/(Pixel*Frame)             : 0.043
Stream size                    : 690 MiB (82%)
Title                          : GOPI SAHI
Writing library                : x264 core 157 r2935 545de2f

Audio #1
ID                             : 2
Format                         : AAC LC
Format/Info                    : Advanced Audio Codec Low Complexity
Codec ID                       : A_AAC-2
Duration                       : 1 h 47 min
Bit rate                       : 96.0 kb/s
Channel(s)                     : 2 channels
Channel layout                 : L R
Sampling rate                  : 48.0 kHz
Frame rate                     : 46.875 FPS (1024 SPF)
Compression mode               : Lossy
Delay relative to video        : -3 ms
Stream size                    : 73.9 MiB (9%)
Title                          : GOPI SAHI
Language                       : Hindi
Default                        : Yes
Forced                         : No

Audio #2
ID                             : 3
Format                         : AAC LC
Format/Info                    : Advanced Audio Codec Low Complexity
Codec ID                       : A_AAC-2
Duration                       : 1 h 47 min
Bit rate                       : 96.0 kb/s
Channel(s)                     : 2 channels
Channel layout                 : L R
Sampling rate                  : 48.0 kHz
Frame rate                     : 46.875 FPS (1024 SPF)
Compression mode               : Lossy
Delay relative to video        : -21 ms
Stream size                    : 73.2 MiB (9%)
Title                          : GOPI SAHI
Language                       : English
Default                        : No
Forced                         : No

Text
ID                             : 4
Format                         : UTF-8
Codec ID                       : S_TEXT/UTF8
Codec ID/Info                  : UTF-8 Plain Text
Duration                       : 1 h 42 min
Bit rate                       : 61 b/s
Count of elements              : 1140
Stream size                    : 46.1 KiB (0%)
Title                          : GOPI SAHI
Language                       : English
Default                        : Yes
Forced                         : No