District B13 2004 x264 720p Esub BluRay Dual Audio English Hindi Sadeemrdp GOPI SAHI

District B13 (2004)

Banlieue 13 (original title)

In the ghettos of Paris in 2010, an undercover cop and an ex-thug try to infiltrate a gang in order to defuse a neutron bomb.

Director:

Pierre Morel
7.2/10
Directed byPierre Morel
Produced byLuc Besson[1]
Written by
Starring
Production
company
Distributed byEuropa Corp.
Release date
  • 10 November 2004 (France)
Running time
86 minutes
CountryFrance
LanguageFrench
Budget€13 million[2]
Box office$9.6–$11.6 million[3][4]



Format                         : Matroska
Format version                 : Version 4
File size                      : 661 MiB
Duration                       : 1 h 24 min
Overall bit rate               : 1 094 kb/s
Movie name                     : Banlieue 13 2004 GOPI SAHI
Encoded date                   : UTC 2020-05-29 19:51:00
Writing application            : mkvmerge v46.0.0 ('No Deeper Escape') 32-bit
Writing library                : libebml v1.3.10 + libmatroska v1.5.2

Video
ID                             : 1
Format                         : AVC
Format/Info                    : Advanced Video Codec
Format profile                 : [email protected]
Format settings                : CABAC / 5 Ref Frames
Format settings, CABAC         : Yes
Format settings, Reference fra : 5 frames
Codec ID                       : V_MPEG4/ISO/AVC
Duration                       : 1 h 24 min
Bit rate                       : 899 kb/s
Width                          : 1 280 pixels
Height                         : 544 pixels
Display aspect ratio           : 2.35:1
Frame rate mode                : Constant
Frame rate                     : 24.000 FPS
Color space                    : YUV
Chroma subsampling             : 4:2:0
Bit depth                      : 8 bits
Scan type                      : Progressive
Bits/(Pixel*Frame)             : 0.054
Stream size                    : 543 MiB (82%)
Title                          : GOPI SAHI
Writing library                : x264 core 157 r2935 545de2f

Audio #1
ID                             : 2
Format                         : AAC LC
Format/Info                    : Advanced Audio Codec Low Complexity
Codec ID                       : A_AAC-2
Duration                       : 1 h 24 min
Bit rate                       : 96.0 kb/s
Channel(s)                     : 2 channels
Channel layout                 : L R
Sampling rate                  : 48.0 kHz
Frame rate                     : 46.875 FPS (1024 SPF)
Compression mode               : Lossy
Delay relative to video        : -21 ms
Stream size                    : 58.3 MiB (9%)
Title                          : GOPI SAHI
Language                       : Hindi
Default                        : No
Forced                         : No

Audio #2
ID                             : 3
Format                         : AAC LC
Format/Info                    : Advanced Audio Codec Low Complexity
Codec ID                       : A_AAC-2
Duration                       : 1 h 24 min
Bit rate                       : 96.0 kb/s
Channel(s)                     : 2 channels
Channel layout                 : L R
Sampling rate                  : 48.0 kHz
Frame rate                     : 46.875 FPS (1024 SPF)
Compression mode               : Lossy
Delay relative to video        : -21 ms
Stream size                    : 58.3 MiB (9%)
Title                          : GOPI SAHI
Language                       : English
Default                        : Yes
Forced                         : No

Text
ID                             : 4
Format                         : ASS
Codec ID                       : S_TEXT/ASS
Codec ID/Info                  : Advanced Sub Station Alpha
Duration                       : 1 h 19 min
Bit rate                       : 81 b/s
Count of elements              : 724
Compression mode               : Lossless
Stream size                    : 47.8 KiB (0%)
Title                          : GOPI SAHI
Language                       : English
Default                        : Yes
Forced                         : No

Menu
00:00:00.000                   : :00:00:00.000
00:02:43.833                   : :00:02:43.747
00:11:38.250                   : :00:11:38.239
00:13:07.042                   : :00:13:06.994
00:20:00.792                   : :00:20:00.740
00:22:49.167                   : :00:22:49.156
00:33:28.250                   : :00:33:28.211
00:36:15.917                   : :00:36:15.755
00:43:33.875                   : :00:43:33.817
00:49:42.125                   : :00:49:42.101
00:55:45.792                   : :00:55:45.715
01:02:24.792                   : :01:02:24.780
01:05:45.417                   : :01:05:45.313
01:08:59.000                   : :01:08:58.840
01:14:48.958                   : :01:14:48.854
01:20:34.542                   : :01:20:34.533