Half A Loaf Of Kung Fu 1978 x264 720p Esub BluRay Dual Audio English Hindi Sadeemrdp GOPI SAHI

Half a Loaf of Kung Fu (1978)

Yi zhao ban shi chuang jiang hu (original title)
R | |Action, Comedy |1985 (USA)

A young man poses as "the Whip King" and collects the reward for a bandit he has seen killed by a famous bounty hunter. He must now learn Kung Fu if he is to live up to this new persona and conquer the enemies he has inherited.

Director:

Chi-Hwa Chen

5.8/10
1,562


Traditional一招半式闖江湖
Simplified一招半式闯江湖
MandarinYī Zhāo Bàn Shì Chuǎng Jiāng Hú
CantoneseJat1 Ziu1 Bun3 Sik1 Cong2 Gong1 Wu4
Directed byChen Chi-hwa
Produced byLo Wei
Hsu Li-hwa
Written byJackie Chan
Tang Ming-chi
StarringJackie Chan
Dean Shek
James Tien
Doris Lung
Wu Ma
Music byFrankie Chan
Tomita Isao
CinematographyChen Chin-kui
Edited byLeong Wing-chan
Distributed byLo Wei Motion Picture Company
Release date
  • 1 July 1978
Running time
98 minutes
CountryHong Kong
LanguageMandarin
Box officeUS$17.18 million


Format                         : Matroska
Format version                 : Version 4
File size                      : 724 MiB
Duration                       : 1 h 32 min
Overall bit rate               : 1 094 kb/s
Movie name                     : Half a Loaf of Kung Fu 1978 GOPI SAHI
Encoded date                   : UTC 2020-05-14 17:07:37
Writing application            : mkvmerge v46.0.0 ('No Deeper Escape') 32-bit
Writing library                : libebml v1.3.10 + libmatroska v1.5.2

Video
ID                             : 1
Format                         : AVC
Format/Info                    : Advanced Video Codec
Format profile                 : [email protected]
Format settings                : CABAC / 5 Ref Frames
Format settings, CABAC         : Yes
Format settings, Reference fra : 5 frames
Codec ID                       : V_MPEG4/ISO/AVC
Duration                       : 1 h 32 min
Bit rate                       : 899 kb/s
Width                          : 1 280 pixels
Height                         : 544 pixels
Display aspect ratio           : 2.35:1
Frame rate mode                : Constant
Frame rate                     : 25.000 FPS
Color space                    : YUV
Chroma subsampling             : 4:2:0
Bit depth                      : 8 bits
Scan type                      : Progressive
Bits/(Pixel*Frame)             : 0.052
Stream size                    : 595 MiB (82%)
Title                          : GOPI SAHI
Writing library                : x264 core 157 r2935 545de2f

Audio #1
ID                             : 2
Format                         : AAC LC
Format/Info                    : Advanced Audio Codec Low Complexity
Codec ID                       : A_AAC-2
Duration                       : 1 h 32 min
Bit rate                       : 96.0 kb/s
Channel(s)                     : 2 channels
Channel layout                 : L R
Sampling rate                  : 48.0 kHz
Frame rate                     : 46.875 FPS (1024 SPF)
Compression mode               : Lossy
Delay relative to video        : -14 ms
Stream size                    : 63.6 MiB (9%)
Title                          : GOPI SAHI
Language                       : Hindi
Default                        : Yes
Forced                         : No

Audio #2
ID                             : 3
Format                         : AAC LC
Format/Info                    : Advanced Audio Codec Low Complexity
Codec ID                       : A_AAC-2
Duration                       : 1 h 32 min
Bit rate                       : 96.0 kb/s
Channel(s)                     : 2 channels
Channel layout                 : L R
Sampling rate                  : 48.0 kHz
Frame rate                     : 46.875 FPS (1024 SPF)
Compression mode               : Lossy
Delay relative to video        : -14 ms
Stream size                    : 63.5 MiB (9%)
Title                          : GOPI SAHI
Language                       : English
Default                        : No
Forced                         : No




Post a Comment

0 Comments