Highway 2014 x264 720p Esub BluRay Hindi Sadeemrdp GOPI SAHI

Highway (2014)

Not Rated | |Crime, Drama, Romance |21 February 2014 (India)
Right before her wedding, a young woman finds herself abducted and held for ransom. As the initial days pass, she begins to develop a strange bond with her kidnapper.

Director:

Imtiaz Ali

Writer:

Imtiaz Ali

7.7/10

Directed byImtiaz Ali
Produced bySajid Nadiadwala
Imtiaz Ali
Written byImtiaz Ali
Irshad Kamil (lyrics)
Starring
Music byA. R. Rahman
CinematographyAnil Mehta
Edited byAarti Bajaj
Production
company
Distributed byUTV Motion Pictures[1]
Release date
  • 13 February 2014 (Berlin)
  • 20 February 2014 (UAE)
  • 21 February 2014 (Worldwide)
Running time
133 minutes[2]
CountryIndia
LanguageHindi
Budget250 million [3]
Box office477 million [3]



Format                         : Matroska
Format version                 : Version 4
File size                      : 958 MiB
Duration                       : 2 h 13 min
Overall bit rate               : 1 006 kb/s
Movie name                     : Highway 2014 GOPI SAHI
Encoded date                   : UTC 2020-05-14 00:23:09
Writing application            : mkvmerge v46.0.0 ('No Deeper Escape') 32-bit
Writing library                : libebml v1.3.10 + libmatroska v1.5.2

Video
ID                             : 1
Format                         : AVC
Format/Info                    : Advanced Video Codec
Format profile                 : [email protected]
Format settings                : CABAC / 5 Ref Frames
Format settings, CABAC         : Yes
Format settings, Reference fra : 5 frames
Codec ID                       : V_MPEG4/ISO/AVC
Duration                       : 2 h 13 min
Bit rate                       : 899 kb/s
Width                          : 1 280 pixels
Height                         : 544 pixels
Display aspect ratio           : 2.35:1
Frame rate mode                : Constant
Frame rate                     : 23.976 (24000/1001) FPS
Color space                    : YUV
Chroma subsampling             : 4:2:0
Bit depth                      : 8 bits
Scan type                      : Progressive
Bits/(Pixel*Frame)             : 0.054
Stream size                    : 856 MiB (89%)
Title                          : GOPI SAHI
Writing library                : x264 core 157 r2935 545de2f

Audio
ID                             : 2
Format                         : AAC LC
Format/Info                    : Advanced Audio Codec Low Complexity
Codec ID                       : A_AAC-2
Duration                       : 2 h 13 min
Bit rate                       : 96.0 kb/s
Channel(s)                     : 2 channels
Channel layout                 : L R
Sampling rate                  : 48.0 kHz
Frame rate                     : 46.875 FPS (1024 SPF)
Compression mode               : Lossy
Delay relative to video        : -21 ms
Stream size                    : 91.4 MiB (10%)
Title                          : GOPI SAHI
Language                       : Hindi
Default                        : Yes
Forced                         : No

Text
ID                             : 3
Format                         : PGS
Muxing mode                    : zlib
Codec ID                       : S_HDMV/PGS
Codec ID/Info                  : Picture based subtitle format used on BDs/HD-DVDs
Duration                       : 2 h 2 min
Bit rate                       : 15.4 kb/s
Count of elements              : 1836
Stream size                    : 13.5 MiB (1%)
Title                          : GOPI SAHI
Language                       : English
Default                        : Yes
Forced                         : No



Post a Comment

0 Comments