Housefull 2 2012 x264 720p Esub BluRay Hindi Sadeemrdp GOPI SAHI

Housefull 2 (2012)

Not Rated | |Action, Comedy, Musical |5 April 2012 (India) 
 
A comedy of errors wherein four men help each other to fool their prospective father-in-laws creating a cascade of confusion and mayhem.

Director:

Sajid Khan

Writers:

Tushar Hiranandani (screenplay), Sajid Khan (screenplay) |5 more credits »

5.2/10

Directed bySajid Khan
Produced bySajid Nadiadwala
Screenplay by
Starring
Music by
CinematographyManoj Soni
Edited byYash Bhagat
Production
company
Distributed byEros International
Release date
  • 5 April 2012
Running time
160 minutes[1]
CountryIndia
LanguageHindi
Budget53 crore
Box officeest. 220 crore



Housefull 2 2012 GOPI SAHI

Format                         : Matroska
Format version                 : Version 4
File size                      : 1.14 GiB
Duration                       : 2 h 39 min
Overall bit rate               : 1 021 kb/s
Movie name                     : Housefull 2 2012 GOPI SAHI

Video
ID                             : 1
Format                         : AVC
Format/Info                    : Advanced Video Codec
Format profile                 : [email protected]
Format settings                : CABAC / 5 Ref Frames
Format settings, CABAC         : Yes
Format settings, Reference fra : 5 frames
Codec ID                       : V_MPEG4/ISO/AVC
Duration                       : 2 h 39 min
Bit rate                       : 899 kb/s
Width                          : 1 280 pixels
Height                         : 544 pixels
Display aspect ratio           : 2.35:1
Frame rate mode                : Constant
Frame rate                     : 24.000 FPS
Color space                    : YUV
Chroma subsampling             : 4:2:0
Bit depth                      : 8 bits
Scan type                      : Progressive
Bits/(Pixel*Frame)             : 0.054
Stream size                    : 1.00 GiB (88%)
Title                          : GOPI SAHI
Writing library                : x264 core 157 r2935 545de2f

Audio
ID                             : 2
Format                         : AAC LC
Format/Info                    : Advanced Audio Codec Low Complexity
Codec ID                       : A_AAC-2
Duration                       : 2 h 39 min
Bit rate                       : 96.0 kb/s
Channel(s)                     : 2 channels
Channel layout                 : L R
Sampling rate                  : 48.0 kHz
Frame rate                     : 46.875 FPS (1024 SPF)
Compression mode               : Lossy
Delay relative to video        : -21 ms
Stream size                    : 109 MiB (9%)
Title                          : GOPI SAHI
Language                       : Hindi
Default                        : Yes
Forced                         : No

Text #1
ID                             : 3
Format                         : PGS
Muxing mode                    : zlib
Codec ID                       : S_HDMV/PGS
Codec ID/Info                  : Picture based subtitle format used on BDs/HD-DVDs
Duration                       : 2 h 36 min
Bit rate                       : 32.6 kb/s
Count of elements              : 5199
Stream size                    : 36.6 MiB (3%)
Title                          : GOPI SAHI
Language                       : English
Default                        : Yes
Forced                         : Yes

Text #2
ID                             : 4
Format                         : PGS
Muxing mode                    : zlib
Codec ID                       : S_HDMV/PGS
Codec ID/Info                  : Picture based subtitle format used on BDs/HD-DVDs
Duration                       : 2 h 36 min
Bit rate                       : 18.6 kb/s
Count of elements              : 5195
Stream size                    : 20.8 MiB (2%)
Title                          : GOPI SAHI
Language                       : Arabic
Default                        : No
Forced                         : No

Menu
00:00:00.000                   : :Chapter 1
00:06:52.667                   : :Chapter 2
00:10:08.750                   : :Chapter 3
00:19:10.292                   : :Chapter 4
00:28:58.708                   : :Chapter 5
00:33:58.333                   : :Chapter 6
00:37:37.042                   : :Chapter 7
00:45:37.083                   : :Chapter 8
00:58:36.083                   : :Chapter 9
01:08:12.542                   : :Chapter 10
01:13:35.750                   : :Chapter 11
01:24:04.708                   : :Chapter 12
01:32:37.042                   : :Chapter 13
01:45:27.542                   : :Chapter 14
01:49:34.000                   : :Chapter 15
01:57:25.333                   : :Chapter 16
02:01:25.750                   : :Chapter 17
02:06:22.667                   : :Chapter 18
02:20:38.875                   : :Chapter 19
02:36:04.333                   : :Chapter 20