Jaane Tu...Ya Jaane Na 2008 x264 720p Esub BluRay Hindi Sadeemrdp GOPI SAHI

Jaane Tu... Ya Jaane Na (2008)


Two best friends being convinced that they are not in love search for each other's love.

Director:

Abbas Tyrewala

7.5/10
Directed byAbbas Tyrewala
Produced byMansoor Khan
Aamir Khan
Written byAbbas Tyrewala
StarringImran Khan
Genelia D'Souza
Prateik Babbar
Arbaaz Khan
Sohail Khan
Music byA. R. Rahman
CinematographyManoj Lobo
Edited byShan Mohammed
Production
company
Distributed byPVR Pictures
UTV Motion Pictures
Release date
4 July 2008
Running time
155 minutes
CountryIndia
LanguageHindi
Budget100 million[1][2]
Box office532 million[3]



Jaane Tu...Ya Jaane Na 2008 GOPI SAHI
Format                         : Matroska
Format version                 : Version 4
File size                      : 1.07 GiB
Duration                       : 2 h 33 min
Overall bit rate               : 998 kb/s
Movie name                     : Jaane Tu...Ya Jaane Na 2008 GOPI SAHI
Encoded date                   : UTC 2020-05-12 19:15:18
Writing application            : mkvmerge v46.0.0 ('No Deeper Escape') 32-bit
Writing library                : libebml v1.3.10 + libmatroska v1.5.2
Cover                          : Yes
Attachments                    : cover.jpg

Video
ID                             : 1
Format                         : AVC
Format/Info                    : Advanced Video Codec
Format profile                 : [email protected]
Format settings                : CABAC / 5 Ref Frames
Format settings, CABAC         : Yes
Format settings, Reference fra : 5 frames
Codec ID                       : V_MPEG4/ISO/AVC
Duration                       : 2 h 33 min
Bit rate                       : 899 kb/s
Width                          : 1 280 pixels
Height                         : 542 pixels
Display aspect ratio           : 2.35:1
Frame rate mode                : Constant
Frame rate                     : 24.000 FPS
Color space                    : YUV
Chroma subsampling             : 4:2:0
Bit depth                      : 8 bits
Scan type                      : Progressive
Bits/(Pixel*Frame)             : 0.054
Stream size                    : 987 MiB (90%)
Title                          : GOPI SAHI
Writing library                : x264 core 157 r2935 545de2f

Audio
ID                             : 2
Format                         : AAC LC
Format/Info                    : Advanced Audio Codec Low Complexity
Codec ID                       : A_AAC-2
Duration                       : 2 h 33 min
Bit rate                       : 96.0 kb/s
Channel(s)                     : 2 channels
Channel layout                 : L R
Sampling rate                  : 48.0 kHz
Frame rate                     : 46.875 FPS (1024 SPF)
Compression mode               : Lossy
Delay relative to video        : -12 ms
Stream size                    : 106 MiB (10%)
Title                          : GOPI SAHI
Language                       : Hindi
Default                        : Yes
Forced                         : No

Text
ID                             : 3
Format                         : UTF-8
Codec ID                       : S_TEXT/UTF8
Codec ID/Info                  : UTF-8 Plain Text
Duration                       : 2 h 25 min
Bit rate                       : 41 b/s
Count of elements              : 1370
Stream size                    : 43.8 KiB (0%)
Title                          : GOPI SAHI
Language                       : English
Default                        : Yes
Forced                         : No










UPLOADFILES




Post a Comment

0 Comments