Law Abiding Citizen 2009 x264 720p Esub BluRay Dual Audio English Hindi Telugu GOPI SAHI

Law Abiding Citizen (2009)

 
A frustrated man decides to take justice into his own hands after a plea bargain sets one of his family's killers free.

Director:

F. Gary Gray

Writer:

Kurt Wimmer
7.4/10

Directed byF. Gary Gray
Produced by
Written byKurt Wimmer
Starring
Music byBrian Tyler
CinematographyJonathan Sela
Edited byTariq Anwar
Production
company
The Film Department
Distributed byOverture Films
Release date
  • October 16, 2009
Running time
118 minutes
CountryUnited States
LanguageEnglish
Budget$53 million[1]
Box office$126.7 million[2]


Law Abiding Citizen 2009 x264 720p Esub BluRay Dual Audio English Hindi Telugu GOPI SAHI
Format : Matroska
Format version : Version 4 / Version 2
File size : 888 MiB
Duration : 1 h 44 min
Overall bit rate : 1 191 kb/s
Movie name : Law Abiding Citizen 2009 GOPI SAHI

Video
ID : 1
Format : AVC
Format/Info : Advanced Video Codec
Format profile : [email protected]4.1
Format settings : CABAC / 5 Ref Frames
Format settings, CABAC : Yes
Format settings, ReFrames : 5 frames
Codec ID : V_MPEG4/ISO/AVC
Duration : 1 h 44 min
Bit rate : 899 kb/s
Width : 1 280 pixels
Height : 534 pixels
Display aspect ratio : 2.40:1
Frame rate mode : Constant
Frame rate : 25.000 FPS
Color space : YUV
Chroma subsampling : 4:2:0
Bit depth : 8 bits
Scan type : Progressive
Bits/(Pixel*Frame) : 0.053
Stream size : 670 MiB (75%)
Title : GOPI SAHI
Writing library : x264 core 148


Audio #1
ID : 2
Format : AAC
Format/Info : Advanced Audio Codec
Format profile : LC
Codec ID : A_AAC-2
Duration : 1 h 44 min
Bit rate : 96.0 kb/s
Channel(s) : 2 channels
Channel positions : Front: L R
Sampling rate : 48.0 kHz
Frame rate : 46.875 FPS (1024 SPF)
Compression mode : Lossy
Delay relative to video : -21 ms
Stream size : 72.0 MiB (8%)
Title : GOPI SAHI
Language : Hindi
Default : Yes
Forced : No

Audio #2
ID : 3
Format : AAC
Format/Info : Advanced Audio Codec
Format profile : LC
Codec ID : A_AAC-2
Duration : 1 h 44 min
Bit rate : 96.0 kb/s
Channel(s) : 2 channels
Channel positions : Front: L R
Sampling rate : 48.0 kHz
Frame rate : 46.875 FPS (1024 SPF)
Compression mode : Lossy
Delay relative to video : -21 ms
Stream size : 71.8 MiB (8%)
Title : GOPI SAHI
Language : English
Default : No
Forced : No

Audio #3
ID : 4
Format : AAC
Format/Info : Advanced Audio Codec
Format profile : LC
Codec ID : A_AAC-2
Duration : 1 h 44 min
Bit rate : 96.0 kb/s
Channel(s) : 2 channels
Channel positions : Front: L R
Sampling rate : 48.0 kHz
Frame rate : 46.875 FPS (1024 SPF)
Compression mode : Lossy
Delay relative to video : -21 ms
Stream size : 71.9 MiB (8%)
Title : GOPI SAHI
Language : Telugu
Default : No
Forced : No

Text
ID : 5
Format : UTF-8
Codec ID : S_TEXT/UTF8
Codec ID/Info : UTF-8 Plain Text
Duration : 1 h 34 min
Bit rate : 66 b/s
Count of elements : 1304
Stream size : 45.9 KiB (0%)
Title : GOPI SAHI
Language : English
Default : No
Forced : No