Love Duo 2020 x264 720p HOTSHOTS Hindi Sadeemrdp GOPI SAHI

Love Duo (2020)


Janhavi is in an intimate relationship for 4 years with her boyfriend Sameer. The story takes a turn when Sameer asks Janhavi to introduce him to her mother. Janhavi's mother has some ... See full summary »

Director:

Gehana Vasisth
 

Format                         : Matroska
Format version                 : Version 4
File size                      : 108 MiB
Duration                       : 25 min 21 s
Overall bit rate               : 596 kb/s
Movie name                     : Love Duo 2020
Encoded date                   : UTC 2020-05-29 12:04:42
Writing application            : mkvmerge v46.0.0 ('No Deeper Escape') 32-bit
Writing library                : libebml v1.3.10 + libmatroska v1.5.2 / Lavf58.29.100

Video
ID                             : 1
Format                         : AVC
Format/Info                    : Advanced Video Codec
Format profile                 : [email protected]
Format settings                : CABAC / 5 Ref Frames
Format settings, CABAC         : Yes
Format settings, Reference fra : 5 frames
Codec ID                       : V_MPEG4/ISO/AVC
Duration                       : 25 min 21 s
Bit rate                       : 499 kb/s
Width                          : 1 280 pixels
Height                         : 538 pixels
Display aspect ratio           : 2.40:1
Frame rate mode                : Constant
Frame rate                     : 25.000 FPS
Color space                    : YUV
Chroma subsampling             : 4:2:0
Bit depth                      : 8 bits
Scan type                      : Progressive
Bits/(Pixel*Frame)             : 0.029
Stream size                    : 90.4 MiB (84%)
Writing library                : x264 core 157 r2935 545de2f

Audio
ID                             : 2
Format                         : AAC LC
Format/Info                    : Advanced Audio Codec Low Complexity
Codec ID                       : A_AAC-2
Duration                       : 25 min 21 s
Bit rate                       : 96.0 kb/s
Channel(s)                     : 2 channels
Channel layout                 : L R
Sampling rate                  : 44.1 kHz
Frame rate                     : 43.066 FPS (1024 SPF)
Compression mode               : Lossy
Delay relative to video        : -70 ms
Stream size                    : 17.3 MiB (16%)
Language                       : Hindi
Default                        : Yes
Forced                         : No