Malang 2020 x264 720p Esub NetFLix Hindi Sadeemrdp GOPI SAHI

Malang (2020)

Malang - Unleash the Madness (original title)
Not Rated | |Action, Crime, Drama |7 February 2020 (USA)

Advait visits Goa where he meets Sara, a free-spirited girl who lives life unshackled. Opposites attract and all goes well until life turns upside down. Years later, Advait is on a killing spree with cops Aghase and Michael in his way.

Director:

Mohit Suri

Writers:

Aseem Arrora (as Aseem Arora), Aniruddha Guha |1 more credit »

6.7/10
2,302

Directed byMohit Suri
Produced byBhushan Kumar
Krishan Kumar
Luv Ranjan
Ankur Garg
Jay Shewakramani
Written byAseem Arrora
Screenplay byAniruddha Guha
StarringAditya Roy Kapur
Disha Patani
Anil Kapoor
Kunal Khemu
Music bySongs:
Mithoon
Ankit Tiwari
Asim Azhar
Ved Sharma
The Fusion Project
Adnan Dhool
Rabi Ahmed
Score:
Raju Singh
CinematographyVikas Sivaraman
Edited byDevendra Murdeshwar
Production
company
Luv Films
T-Series
Northern Lights Entertainment
Distributed byYash Raj Films
Release date
  • 7 February 2020[1]
Running time
135 minutes[2]
CountryIndia
LanguageHindi
Box officeest. 84.50 crore[3]
 

Format                         : Matroska
Format version                 : Version 4
File size                      : 937 MiB
Duration                       : 2 h 11 min
Overall bit rate               : 997 kb/s
Movie name                     : Malang 2020 GOPI SAHI

Video
ID                             : 1
Format                         : AVC
Format/Info                    : Advanced Video Codec
Format profile                 : [email protected]
Format settings                : CABAC / 5 Ref Frames
Format settings, CABAC         : Yes
Format settings, Reference fra : 5 frames
Codec ID                       : V_MPEG4/ISO/AVC
Duration                       : 2 h 11 min
Bit rate                       : 899 kb/s
Width                          : 1 280 pixels
Height                         : 534 pixels
Display aspect ratio           : 2.40:1
Frame rate mode                : Constant
Frame rate                     : 24.000 FPS
Color space                    : YUV
Chroma subsampling             : 4:2:0
Bit depth                      : 8 bits
Scan type                      : Progressive
Bits/(Pixel*Frame)             : 0.055
Stream size                    : 845 MiB (90%)
Title                          : GOPI SAHI
Writing library                : x264 core 157 r2935 545de2f

Audio
ID                             : 2
Format                         : AAC LC
Format/Info                    : Advanced Audio Codec Low Complexity
Codec ID                       : A_AAC-2
Duration                       : 2 h 11 min
Bit rate                       : 96.0 kb/s
Channel(s)                     : 2 channels
Channel layout                 : L R
Sampling rate                  : 48.0 kHz
Frame rate                     : 46.875 FPS (1024 SPF)
Compression mode               : Lossy
Delay relative to video        : -21 ms
Stream size                    : 90.1 MiB (10%)
Title                          : GOPI SAHI
Language                       : Hindi
Default                        : Yes
Forced                         : No

Text
ID                             : 3
Format                         : UTF-8
Codec ID                       : S_TEXT/UTF8
Codec ID/Info                  : UTF-8 Plain Text
Duration                       : 2 h 4 min
Bit rate                       : 43 b/s
Count of elements              : 1291
Stream size                    : 39.9 KiB (0%)
Title                          : GOPI SAHI
Language                       : English
Default                        : Yes
Forced                         : No

















Post a Comment

0 Comments