Night at the Museum Secret of the Tomb 2014 x264 720p Esub BluRay Dual Audio English Hindi Sadeemrdp GOPI SAHI

Night at the Museum: Secret of the Tomb (2014)

 
Larry spans the globe, uniting favorite and new characters while embarking on an epic quest to save the magic before it is gone forever.

Director:

Shawn Levy

Writers:

David Guion (screenplay), Michael Handelman (screenplay) |5 more credits »
6.2/10

Directed byShawn Levy
Produced by
Screenplay by
  • David Guion
  • Michael Handelman
Story by
  • Mark Friedman
  • David Guion
  • Michael Handelman
Based onCharacters
by Thomas Lennon
Robert Ben Garant
Starring
Music byAlan Silvestri
CinematographyGuillermo Navarro
Edited byDean Zimmerman
Production
company
Distributed by20th Century Fox
Release date
Running time
97 minutes[1]
CountryUnited States
LanguageEnglish
Budget$127 million[2]
Box office$363.2 million[2]


Format                         : Matroska
Format version                 : Version 4
File size                      : 766 MiB
Duration                       : 1 h 37 min
Overall bit rate               : 1 095 kb/s
Movie name                     : Night at the Museum Secret of the Tomb 2014 GOPI SAHI
Encoded date                   : UTC 2020-05-18 00:16:35
Writing application            : mkvmerge v46.0.0 ('No Deeper Escape') 32-bit
Writing library                : libebml v1.3.10 + libmatroska v1.5.2

Video
ID                             : 1
Format                         : AVC
Format/Info                    : Advanced Video Codec
Format profile                 : [email protected]
Format settings                : CABAC / 5 Ref Frames
Format settings, CABAC         : Yes
Format settings, Reference fra : 5 frames
Codec ID                       : V_MPEG4/ISO/AVC
Duration                       : 1 h 37 min
Bit rate                       : 899 kb/s
Width                          : 1 280 pixels
Height                         : 690 pixels
Display aspect ratio           : 1.85:1
Frame rate mode                : Constant
Frame rate                     : 23.976 (24000/1001) FPS
Color space                    : YUV
Chroma subsampling             : 4:2:0
Bit depth                      : 8 bits
Scan type                      : Progressive
Bits/(Pixel*Frame)             : 0.042
Stream size                    : 629 MiB (82%)
Title                          : GOPI SAHI
Writing library                : x264 core 157 r2935 545de2f

Audio #1
ID                             : 2
Format                         : AAC LC
Format/Info                    : Advanced Audio Codec Low Complexity
Codec ID                       : A_AAC-2
Duration                       : 1 h 37 min
Bit rate                       : 96.0 kb/s
Channel(s)                     : 2 channels
Channel layout                 : L R
Sampling rate                  : 48.0 kHz
Frame rate                     : 46.875 FPS (1024 SPF)
Compression mode               : Lossy
Delay relative to video        : -21 ms
Stream size                    : 67.5 MiB (9%)
Title                          : GOPI SAHI
Language                       : Hindi
Default                        : Yes
Forced                         : No

Audio #2
ID                             : 3
Format                         : AAC LC
Format/Info                    : Advanced Audio Codec Low Complexity
Codec ID                       : A_AAC-2
Duration                       : 1 h 37 min
Bit rate                       : 96.0 kb/s
Channel(s)                     : 2 channels
Channel layout                 : L R
Sampling rate                  : 48.0 kHz
Frame rate                     : 46.875 FPS (1024 SPF)
Compression mode               : Lossy
Delay relative to video        : -21 ms
Stream size                    : 67.4 MiB (9%)
Language                       : English
Default                        : No
Forced                         : No

Text #1
ID                             : 4
Format                         : UTF-8
Codec ID                       : S_TEXT/UTF8
Codec ID/Info                  : UTF-8 Plain Text
Duration                       : 1 h 29 min
Bit rate                       : 66 b/s
Count of elements              : 1556
Stream size                    : 43.8 KiB (0%)
Title                          : GOPI SAHI
Language                       : English
Default                        : Yes
Forced                         : Yes

Text #2
ID                             : 5
Format                         : UTF-8
Codec ID                       : S_TEXT/UTF8
Codec ID/Info                  : UTF-8 Plain Text
Duration                       : 1 h 29 min
Bit rate                       : 182 b/s
Count of elements              : 1556
Stream size                    : 120 KiB (0%)
Title                          : GOPI SAHI
Language                       : Hindi
Default                        : No
Forced                         : No















Post a Comment

0 Comments