On Her Majesty's Secret Service 1969 x264 720p Esub BluRay Dual Audio English Hindi GOPI SAHI

On Her Majesty's Secret Service (1969)

James Bond woos a mob boss' daughter and goes undercover to uncover the true reason for Ernst Stavro Blofeld's allergy research in the Swiss Alps involving beautiful women from around the world.

Director:

Peter R. Hunt (as Peter Hunt)

Writers:

Simon Raven (additional dialogue), Richard Maibaum (screenplay)
6.7/10
76,799

Directed byPeter R. Hunt
Produced byHarry Saltzman
Albert R. Broccoli
Screenplay byRichard Maibaum
Additional dialogue by
Based onOn Her Majesty's Secret Service
by Ian Fleming
StarringGeorge Lazenby
Diana Rigg
Telly Savalas
Bernard Lee
Gabriele Ferzetti
Ilse Steppat
Music byJohn Barry
CinematographyMichael Reed
Edited byJohn Glen
Production
company
Distributed byUnited Artists
Release date
  • 18 December 1969 (London, premiere)
Running time
142 minutes[1]
CountryUnited Kingdom
United States
LanguageEnglish
Budget$7 million
Box office$82 million



On Her Majesty's Secret Service 1969 x264 720p Esub BluRay Dual Audio English Hindi GOPI SAHI

Format                                   : Matroska
Format version                           : Version 4 / Version 2
File size                                : 1.10 GiB
Duration                                 : 2 h 22 min
Overall bit rate                         : 1 110 kb/s
Movie name                               : On Her Majesty's Secret Service 1969  GOPI SAHI

Video
ID                                       : 1
Format                                   : AVC
Format/Info                              : Advanced Video Codec
Format profile                           : [email protected]
Format settings                          : CABAC / 5 Ref Frames
Format settings, CABAC                   : Yes
Format settings, ReFrames                : 5 frames
Codec ID                                 : V_MPEG4/ISO/AVC
Duration                                 : 2 h 22 min
Bit rate                                 : 899 kb/s
Width                                    : 1 280 pixels
Height                                   : 544 pixels
Display aspect ratio                     : 2.35:1
Frame rate mode                          : Constant
Frame rate                               : 23.976 (24000/1001) FPS
Color space                              : YUV
Chroma subsampling                       : 4:2:0
Bit depth                                : 8 bits
Scan type                                : Progressive
Bits/(Pixel*Frame)                       : 0.054
Stream size                              : 915 MiB (81%)
Title                                    : GOPI SAHI
Writing library                          : x264 core 148
Encoding settings                        : cabac=1 / ref=5 / deblock=1:0:0 / analyse=0x3:0x133 / me=umh / subme=10 / psy=1 / psy_rd=1.00:0.00 / mixed_ref=1 / me_range=24 / chroma_me=1 / trellis=2 / 8x8dct=1 / cqm=0 / deadzone=21,11 / fast_pskip=1 / chroma_qp_offset=-2 / threads=4 / lookahead_threads=1 / sliced_threads=0 / nr=0 / decimate=1 / interlaced=0 / bluray_compat=0 / constrained_intra=0 / bframes=5 / b_pyramid=2 / b_adapt=2 / b_bias=0 / direct=3 / weightb=1 / open_gop=0 / weightp=2 / keyint=240 / keyint_min=24 / scenecut=40 / intra_refresh=0 / rc_lookahead=60 / rc=2pass / mbtree=1 / bitrate=899 / ratetol=1.0 / qcomp=0.60 / qpmin=0 / qpmax=69 / qpstep=4 / cplxblur=20.0 / qblur=0.5 / vbv_maxrate=62500 / vbv_bufsize=78125 / nal_hrd=none / filler=0 / ip_ratio=1.40 / aq=1:1.00
Language                                 : English
Default                                  : Yes
Forced                                   : No
Color range                              : Limited
Color primaries                          : BT.709
Transfer characteristics                 : BT.709
Matrix coefficients                      : BT.709

Audio #1
ID                                       : 2
Format                                   : AAC
Format/Info                              : Advanced Audio Codec
Format profile                           : LC
Codec ID                                 : A_AAC-2
Duration                                 : 2 h 22 min
Bit rate                                 : 96.0 kb/s
Channel(s)                               : 2 channels
Channel positions                        : Front: L R
Sampling rate                            : 48.0 kHz
Frame rate                               : 46.875 FPS (1024 SPF)
Compression mode                         : Lossy
Delay relative to video                  : -21 ms
Stream size                              : 98.0 MiB (9%)
Title                                    : GOPI SAHI
Language                                 : Hindi
Default                                  : Yes
Forced                                   : No

Audio #2
ID                                       : 3
Format                                   : AAC
Format/Info                              : Advanced Audio Codec
Format profile                           : LC
Codec ID                                 : A_AAC-2
Duration                                 : 2 h 22 min
Bit rate                                 : 96.0 kb/s
Channel(s)                               : 2 channels
Channel positions                        : Front: L R
Sampling rate                            : 48.0 kHz
Frame rate                               : 46.875 FPS (1024 SPF)
Compression mode                         : Lossy
Delay relative to video                  : -21 ms
Stream size                              : 98.0 MiB (9%)
Title                                    : GOPI SAHI
Language                                 : English
Default                                  : No
Forced                                   : No

Text #1
ID                                       : 4
Format                                   : PGS
Muxing mode                              : zlib
Codec ID                                 : S_HDMV/PGS
Codec ID/Info                            : Picture based subtitle format used on BDs/HD-DVDs
Duration                                 : 2 h 21 min
Bit rate                                 : 25.2 kb/s
Count of elements                        : 2132
Stream size                              : 25.5 MiB (2%)
Title                                    : GOPI SAHI
Language                                 : English
Default                                  : Yes
Forced                                   : No

Text #2
ID                                       : 5
Format                                   : PGS
Muxing mode                              : zlib
Codec ID                                 : S_HDMV/PGS
Codec ID/Info                            : Picture based subtitle format used on BDs/HD-DVDs
Duration                                 : 2 h 21 min
Bit rate                                 : 28.3 kb/s
Count of elements                        : 2622
Stream size                              : 28.8 MiB (3%)
Title                                    : GOPI SAHI
Language                                 : English
Default                                  : No
Forced                                   : N



Post a Comment

0 Comments